<?xml version="1.0" standalone="no"?>
<!DOCTYPE svg PUBLIC "-//W3C//DTD SVG 1.1//EN" "http://www.w3.org/Graphics/SVG/1.1/DTD/svg11.dtd" >
<svg xmlns="http://www.w3.org/2000/svg">
<metadata>Generated by IcoMoon</metadata>
<defs>
<font id="icomoon" horiz-adv-x="1024">
<font-face units-per-em="1024" ascent="960" descent="-64" />
<missing-glyph horiz-adv-x="1024" />
<glyph unicode="&#x20;" horiz-adv-x="512" d="" />
<glyph unicode="&#xe900;" glyph-name="about" d="M474.125 405.248c-4.86-13.414-7.488-31.693-7.876-54.831h53.961c0 29.555 7.095 52.207 21.291 67.959l31.791 31.497c31.501 33.058 47.249 66.598 47.249 100.627 0 34.417-10.304 61.445-30.916 81.083-20.416 19.834-48.998 29.75-85.747 29.75-35.392 0-64.166-9.722-86.335-29.167-21.972-19.25-33.153-44.625-33.542-76.125h53.956c0 17.694 6.029 31.791 18.086 42.292 12.053 10.5 27.998 15.75 47.834 15.75 20.416 0 35.972-5.833 46.665-17.5 10.697-11.472 16.043-27.417 16.043-47.833 0-21.194-8.166-41.030-24.499-59.5l-38.208-39.377c-14.972-16.333-24.892-31.206-29.751-44.625zM471.791 279.834c-5.248-5.833-7.876-13.124-7.876-21.875s2.628-16.043 7.876-21.875c5.444-5.641 13.419-8.457 23.919-8.457s18.47 2.816 23.915 8.457c5.444 5.833 8.166 13.124 8.166 21.875s-2.722 16.043-8.166 21.875c-5.444 6.029-13.414 9.041-23.915 9.041s-18.475-3.012-23.919-9.041zM938.667 448c0 235.642-191.027 426.667-426.667 426.667-235.642 0-426.667-191.025-426.667-426.667 0-235.639 191.025-426.667 426.667-426.667 235.639 0 426.667 191.027 426.667 426.667zM896 448c0-212.079-171.921-384-384-384-212.077 0-384 171.921-384 384 0 212.077 171.923 384 384 384 212.079 0 384-171.923 384-384z" />
<glyph unicode="&#xe901;" glyph-name="add-choices" d="M490.667 426.667v-85.333h42.667v85.333h85.333v42.667h-85.333v85.333h-42.667v-85.333h-85.333v-42.667h85.333z" />
<glyph unicode="&#xe902;" glyph-name="add-files" d="M490.667 593.617v-337.617c0-11.78 9.553-21.333 21.333-21.333 11.785 0 21.333 9.553 21.333 21.333v337.617l114.116-97.813c8.947-7.667 22.413-6.635 30.080 2.313s6.635 22.413-2.313 30.080l-149.239 127.922c-3.746 3.249-8.631 5.215-13.978 5.215s-10.231-1.966-13.973-5.215l-149.243-127.922c-8.945-7.667-9.981-21.133-2.314-30.080s21.135-9.98 30.081-2.313l114.116 97.813zM256 832h408.994c11.315 0 22.17-4.495 30.17-12.497l103.006-103.007c8-8.001 12.497-18.854 12.497-30.17v-579.66c0-23.565-19.102-42.667-42.667-42.667h-512c-23.564 0-42.667 19.102-42.667 42.667v682.667c0 23.564 19.103 42.667 42.667 42.667zM664.994 789.333h-408.994v-682.667h512v579.66l-103.006 103.006z" />
<glyph unicode="&#xe903;" glyph-name="add-new" d="M512 710.692c11.78 0 21.333-9.551 21.333-21.333v-220.026h220.028c11.78 0 21.333-9.553 21.333-21.333s-9.553-21.333-21.333-21.333h-220.028v-220.028c0-11.78-9.553-21.333-21.333-21.333s-21.333 9.553-21.333 21.333v220.028h-220.026c-11.782 0-21.333 9.553-21.333 21.333s9.551 21.333 21.333 21.333h220.026v220.026c0 11.782 9.553 21.333 21.333 21.333zM512 21.333c-235.642 0-426.667 191.027-426.667 426.667 0 235.642 191.025 426.667 426.667 426.667 235.639 0 426.667-191.025 426.667-426.667 0-235.639-191.027-426.667-426.667-426.667zM512 64c212.079 0 384 171.921 384 384 0 212.077-171.921 384-384 384-212.077 0-384-171.923-384-384 0-212.079 171.923-384 384-384z" />
<glyph unicode="&#xe904;" glyph-name="add" d="M533.333 832c0 11.782-9.553 21.333-21.333 21.333s-21.333-9.551-21.333-21.333v-362.667h-362.667c-11.782 0-21.333-9.553-21.333-21.333s9.551-21.333 21.333-21.333h362.667v-362.667c0-11.78 9.553-21.333 21.333-21.333s21.333 9.553 21.333 21.333v362.667h362.667c11.78 0 21.333 9.553 21.333 21.333s-9.553 21.333-21.333 21.333h-362.667v362.667z" />
<glyph unicode="&#xe905;" glyph-name="address" d="M362 574.667c0 82.71 67.29 150 150 150s149.999-67.29 149.999-150c0-81.278-65.161-150.001-149.999-150.001-83.806 0-150 67.819-150 150.001zM411.667 574.667c0-55.277 44.905-100.333 100.333-100.333 56.307 0 100.169 45.862 100.169 100.333 0 55.14-45.030 100.333-100.169 100.333s-100.333-45.193-100.333-100.333zM212 574.667c0 165.42 134.58 300 300 300s299.998-134.58 299.998-300c0-54.231-14.63-107.381-42.313-153.7l-232.073-387.482c-4.476-7.479-12.531-12.083-21.248-12.151h-0.201c-8.644 0-16.678 4.467-21.239 11.819l-238.143 383.761c-29.3 47.322-44.782 101.862-44.782 157.754zM515.785 94.357l210.991 352.277c23.040 38.554 35.392 82.829 35.392 128.032 0 137.85-112.316 250.333-250.167 250.333s-250.333-112.483-250.333-250.333c0-46.581 13.223-92.021 37.612-131.411l216.506-348.898z" />
<glyph unicode="&#xe906;" glyph-name="arrows" d="M357.059 689.584c7.961 8.685 7.375 22.18-1.311 30.141s-22.18 7.375-30.141-1.31l-234.667-255.998c-7.476-8.158-7.476-20.676 0-28.834l234.667-256c7.962-8.683 21.456-9.271 30.141-1.31s9.272 21.457 1.311 30.144l-221.453 241.583 221.453 241.584zM666.94 689.584c-7.962 8.685-7.373 22.18 1.31 30.141 8.687 7.962 22.182 7.375 30.144-1.31l234.667-255.998c7.475-8.158 7.475-20.676 0-28.834l-234.667-256c-7.962-8.683-21.457-9.271-30.144-1.31-8.683 7.962-9.271 21.457-1.31 30.144l221.453 241.583-221.453 241.584z" />
<glyph unicode="&#xe907;" glyph-name="attention16" d="M512 128c-176.731 0-320 143.27-320 320s143.269 320 320 320c176.73 0 320-143.269 320-320s-143.27-320-320-320zM512 64c212.077 0 384 171.923 384 384s-171.923 384-384 384c-212.077 0-384-171.923-384-384s171.923-384 384-384zM480 384v288h64v-288h-64zM560 272c0-26.51-21.49-48-48-48s-48 21.49-48 48c0 26.51 21.49 48 48 48s48-21.49 48-48z" />
<glyph unicode="&#xe908;" glyph-name="authorize" d="M128 277.333c0 23.565 19.103 42.667 42.667 42.667h682.667c23.565 0 42.667-19.102 42.667-42.667v-213.333c0-23.565-19.102-42.667-42.667-42.667h-682.667c-23.564 0-42.667 19.102-42.667 42.667v213.333zM439.313 74.001h30.251v181.999h-30.374l-0.252-124.877-59 124.877h-30.375v-181.999h30.375l0.125 125.248 59.251-125.248zM537.314 155.627h74.871v24.247h-74.871v51.375h86.75v24.751h-116.877v-181.999h117.751v24.499h-87.625v57.126zM788.186 231.249v24.751h-141.248v-24.751h55.501v-157.248h29.875v157.248h55.872zM257.604 104.478c-1.070-3.012-1.604-6.221-1.604-9.626 0-3.401 0.535-6.562 1.604-9.476 1.167-2.82 2.819-5.299 4.958-7.437 2.139-2.142 4.764-3.793 7.875-4.962 3.208-1.263 6.854-1.894 10.938-1.894s7.68 0.631 10.792 1.894c3.208 1.169 5.882 2.82 8.020 4.962 2.236 2.138 3.889 4.617 4.959 7.437 1.167 2.914 1.75 6.076 1.75 9.476 0 3.405-0.583 6.613-1.75 9.626-1.070 3.017-2.723 5.594-4.959 7.731-2.139 2.236-4.812 3.985-8.020 5.248-3.111 1.267-6.708 1.899-10.792 1.899s-7.729-0.631-10.938-1.899c-3.111-1.263-5.736-3.012-7.875-5.248-2.139-2.138-3.792-4.715-4.958-7.731zM193.057 663h-63.729l-12.541-44.333h-43.167l69.562 212.333h37.187l68.25-212.333h-43.167l-12.396 44.333zM139.39 697.854h44.042l-21.729 78.167-22.313-78.167zM406.487 831l0.146-140.729c0-11.861-1.653-22.41-4.958-31.646-3.209-9.236-7.924-17.062-14.146-23.479-6.125-6.319-13.66-11.132-22.604-14.438-8.847-3.305-18.959-4.958-30.333-4.958-10.694 0-20.368 1.653-29.021 4.958-8.556 3.306-15.896 8.118-22.021 14.438s-10.889 14.097-14.292 23.334c-3.305 9.333-4.958 19.93-4.958 31.791l0.146 140.729h40.979l0.146-140.729c0.097-13.708 2.576-24.062 7.437-31.062 4.958-7 12.153-10.5 21.583-10.5 10.014 0 17.646 3.5 22.896 10.5 5.347 7 8.070 17.354 8.167 31.062l0.146 140.729h40.687zM597.457 797.604h-65.476v-178.938h-41.126v178.938h-64.605v33.396h171.207v-33.396zM757.952 618.667h-40.542v92.021h-60.083v-92.021h-40.687v212.333h40.687v-87.062h60.083v87.062h40.542v-212.333zM942.362 709.229c0-13.611-1.801-26.153-5.397-37.625s-8.798-21.34-15.603-29.604c-6.805-8.264-15.121-14.729-24.939-19.396-9.724-4.57-20.706-6.854-32.96-6.854-12.25 0-23.138 2.285-32.666 6.854-9.527 4.666-17.549 11.132-24.060 19.396-6.515 8.361-11.473 18.229-14.878 29.604-3.401 11.472-5.103 24.014-5.103 37.625v30.917c0 13.611 1.702 26.153 5.103 37.625 3.405 11.472 8.363 21.341 14.878 29.604 6.511 8.361 14.485 14.875 23.915 19.542 9.527 4.666 20.416 7 32.666 7 12.348 0 23.381-2.333 33.105-7 9.818-4.667 18.133-11.18 24.939-19.542 6.805-8.264 12.006-18.132 15.603-29.604s5.397-24.014 5.397-37.625v-30.917zM900.796 740.437c0 8.653-0.725 16.625-2.185 23.917-1.361 7.292-3.55 13.562-6.562 18.813-3.017 5.25-6.903 9.333-11.669 12.25-4.663 3.014-10.351 4.521-17.062 4.521-6.609 0-12.151-1.507-16.623-4.521-4.471-2.917-8.073-7-10.795-12.25s-4.663-11.521-5.833-18.813c-1.165-7.292-1.749-15.264-1.749-23.917v-31.208c0-8.556 0.585-16.479 1.749-23.771 1.169-7.292 3.11-13.611 5.833-18.959s6.323-9.527 10.795-12.541c4.471-3.014 10.061-4.521 16.768-4.521 6.613 0 12.254 1.507 16.917 4.521 4.766 3.014 8.606 7.146 11.52 12.396 3.017 5.347 5.252 11.666 6.711 18.958s2.185 15.264 2.185 23.917v31.208zM230.956 442.001h-31.063v-79.334h-40.979v212.333h71.167c11.764 0 22.41-1.41 31.938-4.229 9.527-2.722 17.646-6.757 24.354-12.104 6.805-5.347 12.007-12.007 15.604-19.979 3.695-7.974 5.542-17.207 5.542-27.707 0-7.586-0.924-14.438-2.771-20.565-1.75-6.025-4.326-11.469-7.729-16.333-3.306-4.762-7.34-8.943-12.104-12.54-4.667-3.597-9.917-6.707-15.75-9.335l45.646-87.646v-1.894h-43.896l-39.958 79.334zM199.893 475.251h30.333c11.569 0 20.465 2.914 26.688 8.751 6.319 5.926 9.479 13.999 9.479 24.205 0 10.598-3.062 18.816-9.187 24.649-6.125 5.929-15.167 8.895-27.125 8.895h-30.188v-66.499zM356.291 575h122.792v-33.104h-41.417v-146.269h41.417v-32.96h-122.792v32.96h40.396v146.269h-40.396v33.104zM579.332 395.772h105.293v-33.105h-155.166v25.084l102.959 153.854h-102.669v33.396h152.252l0.145-24.354-102.814-154.874zM854.588 455.71h-87.211v-59.938h101.939v-33.105h-143.066v212.333h142.626v-33.396h-101.5v-53.519h87.211v-32.375z" />
<glyph unicode="&#xe909;" glyph-name="back" d="M757.222 817.679c15.654-17.612 14.067-44.58-3.541-60.236l-348.126-309.443 348.126-309.444c17.609-15.654 19.196-42.624 3.541-60.237s-42.624-19.196-60.237-3.541l-383.998 341.333c-9.109 8.094-14.321 19.703-14.321 31.889s5.212 23.791 14.321 31.889l383.998 341.333c17.613 15.655 44.582 14.069 60.237-3.543z" />
<glyph unicode="&#xe90a;" glyph-name="bold" d="M315.5 192v546h191.252c66.249 0 116.497-12.75 150.75-38.25 34.249-25.25 51.375-62.375 51.375-111.375 0-26.75-6.878-50.375-20.625-70.875-13.751-20.25-32.875-35.123-57.378-44.625 28.002-7.002 50.001-21.124 66.001-42.377 16.252-21.248 24.375-47.249 24.375-77.999 0-52.501-16.751-92.25-50.249-119.249-33.502-26.999-81.25-40.751-143.253-41.25h-212.248zM427.998 429.751v-147.375h96.375c26.5 0 47.125 6.246 61.875 18.748 15.002 12.749 22.502 30.251 22.502 52.501 0 50.001-25.877 75.375-77.628 76.126h-103.125zM427.998 509.248h83.251c56.751 1.003 85.124 23.629 85.124 67.877 0 24.75-7.249 42.5-21.747 53.25-14.251 11-36.877 16.5-67.874 16.5h-78.754v-137.627z" />
<glyph unicode="&#xe90b;" glyph-name="brush" d="M861.623 799.158c-21.175 21.182-49.429 32.842-79.552 32.842-30.127 0-58.381-11.666-79.561-32.848l-371.988-371.982c-26.215 0.107-52.061-6.187-75.217-18.415-25.77-13.611-46.324-34.048-59.438-59.098-7.787-14.874-12.562-31.159-14.461-47.829-1.922-16.836 0.674-33.118 0.674-49.899 0-36.996-16.254-71.919-44.584-95.808-6.539-5.513-9.387-14.251-7.348-22.558 4.224-17.246 12.006-31.629 23.127-42.752 17.813-17.813 43.945-26.812 76.348-26.812 22.301 0 47.578 4.267 75.147 12.86 53.396 16.649 107.601 47.104 138.092 77.598 30.029 30.029 46.942 71.219 46.788 113.617l371.972 371.972c43.861 43.863 43.861 115.242 0 159.111zM411.036 186.278c-38.215-38.212-124.98-77.466-182.197-77.461-18.592 0-34.066 4.151-43.74 13.82-2.719 2.722-5.057 6.003-6.979 9.826 31.289 31.744 48.961 74.47 48.961 119.471 0 24.414-4.512 46.289 5.315 69.739 8.555 20.407 24.428 36.988 43.928 47.283 18.023 9.519 38.326 14.025 58.81 13.099l109.495-109.495c-0.026-0.516-0.047-1.033-0.030-1.553 0.99-32.009-10.927-62.097-33.563-84.727zM469.376 311.445l-95.465 95.467 31.823 31.825 95.472-95.467-31.829-31.825zM829.798 671.869l-296.768-296.778-95.475 95.467 296.777 296.778c12.681 12.68 29.632 19.658 47.74 19.658 18.099 0.006 35.051-6.979 47.727-19.658 26.321-26.321 26.321-69.146 0-95.467z" />
<glyph unicode="&#xe90c;" glyph-name="builder" d="M853.333 704h85.333v-597.333h-853.333v597.333h85.333v85.333h170.667v-85.333h85.333v85.333h170.667v-85.333h85.333v85.333h170.667v-85.333zM896 661.333h-85.333v85.333h-85.333v-85.333h-64v-234.667h234.667v234.667zM618.667 661.333h-64v85.333h-85.333v-85.333h-170.667v85.333h-85.333v-85.333h-85.333v-234.667h490.667v234.667zM128 384v-234.667h234.667v234.667h-234.667zM405.333 384v-234.667h490.667v234.667h-490.667z" />
<glyph unicode="&#xe90d;" glyph-name="button" d="M213.333 333.333v242.667h79.334c26.333 0 46.111-5.444 59.333-16.333 13.333-10.889 20-26.999 20-48.332 0-11.332-3.222-21.389-9.667-30.17-6.444-8.666-15.222-15.386-26.333-20.164 13.111-3.665 23.444-10.667 31-21.001 7.667-10.223 11.5-22.443 11.5-36.668 0-21.777-7.055-38.886-21.167-51.332s-34.056-18.667-59.833-18.667h-84.167zM245.333 446.835v-87.334h52.833c14.889 0 26.611 3.831 35.167 11.499 8.666 7.778 13 18.445 13 32 0 29.222-15.889 43.836-47.667 43.836h-53.333zM245.333 472.499h48.333c14 0 25.167 3.499 33.5 10.5 8.445 7.002 12.666 16.499 12.666 28.501 0 13.333-3.889 22.999-11.666 28.999-7.778 6.111-19.611 9.167-35.5 9.167h-47.334v-77.167zM589.001 549.667h-77.999v-216.333h-31.834v216.333h-77.835v26.333h187.667v-26.333zM779.332 333.333h32.166v242.667h-31.834v-187.831l-122.5 187.831h-32.166v-242.667h32.166v186.999l122.167-186.999zM85.333 618.667v-341.333c0-23.565 19.103-42.667 42.667-42.667h768c23.565 0 42.667 19.102 42.667 42.667v341.333c0 23.564-19.102 42.667-42.667 42.667h-768c-23.564 0-42.667-19.103-42.667-42.667zM128 618.667h768v-341.333h-768v341.333z" />
<glyph unicode="&#xe90e;" glyph-name="calculator" d="M853.333 789.333v-682.667h-682.667v682.667h682.667zM170.667 832c-23.564 0-42.667-19.103-42.667-42.667v-682.667c0-23.565 19.103-42.667 42.667-42.667h682.667c23.565 0 42.667 19.102 42.667 42.667v682.667c0 23.564-19.102 42.667-42.667 42.667h-682.667zM490.667 64v768h42.667v-768h-42.667zM128 469.333h768v-42.667h-768v42.667zM361.341 638.631h65.325v-36.226h-65.325v-69.072h-39.845v69.072h-65.496v36.226h65.496v65.369h39.845v-65.369zM369.598 277.303l46.192-46.191-25.616-25.617-46.192 46.191-48.841-48.841-28.175 28.173 48.841 48.845-46.313 46.31 25.616 25.617 46.313-46.315 46.223 46.225 28.175-28.177-46.223-46.221zM768 597.333h-128v42.667h128v-42.667zM768 256h-128v42.667h128v-42.667zM725.333 341.333c0-11.78-9.553-21.333-21.333-21.333s-21.333 9.553-21.333 21.333c0 11.78 9.553 21.333 21.333 21.333s21.333-9.553 21.333-21.333zM725.333 213.333c0-11.78-9.553-21.333-21.333-21.333s-21.333 9.553-21.333 21.333c0 11.78 9.553 21.333 21.333 21.333s21.333-9.553 21.333-21.333z" />
<glyph unicode="&#xe90f;" glyph-name="checkbox-activated" d="M832 768v-640h-640v640h640zM192 832c-35.346 0-64-28.654-64-64v-640c0-35.347 28.654-64 64-64h640c35.347 0 64 28.653 64 64v640c0 35.346-28.653 64-64 64h-640zM762.214 621.649l-241.937-345.624-218.028 145.348 35.501 53.252 165.972-110.649 206.063 294.374 52.429-36.701z" />
<glyph unicode="&#xe910;" glyph-name="checkbox" d="M832 768v-640h-640v640h640zM192 832c-35.346 0-64-28.654-64-64v-640c0-35.347 28.654-64 64-64h640c35.347 0 64 28.653 64 64v640c0 35.346-28.653 64-64 64h-640z" />
<glyph unicode="&#xe911;" glyph-name="choices" d="M615.083 713.5c6.537 9.803 3.887 23.049-5.914 29.584-9.805 6.535-23.049 3.886-29.585-5.917l-73.502-110.249-46.251 30.833c-9.801 6.535-23.044 3.886-29.581-5.917s-3.887-23.049 5.918-29.584l63.996-42.667c9.805-6.535 23.049-3.886 29.585 5.917l85.333 128zM128 789.333v-256c0-23.565 19.103-42.667 42.667-42.667h682.667c23.565 0 42.667 19.102 42.667 42.667v256c0 23.564-19.102 42.667-42.667 42.667h-682.667c-23.564 0-42.667-19.103-42.667-42.667zM170.667 789.333h682.667v-256h-682.667v256zM615.083 286.831c6.537 9.805 3.887 23.049-5.914 29.585-9.805 6.537-23.049 3.887-29.585-5.914l-73.502-110.251-46.251 30.831c-9.801 6.537-23.044 3.887-29.581-5.914-6.537-9.805-3.887-23.049 5.918-29.585l63.996-42.667c9.805-6.537 23.049-3.887 29.585 5.914l85.333 128zM170.667 405.333h682.667c23.565 0 42.667-19.102 42.667-42.667v-256c0-23.565-19.102-42.667-42.667-42.667h-682.667c-23.564 0-42.667 19.102-42.667 42.667v256c0 23.565 19.103 42.667 42.667 42.667zM853.333 362.667h-682.667v-256h682.667v256z" />
<glyph unicode="&#xe912;" glyph-name="circle" d="M512 64c-212.077 0-384 171.921-384 384 0 212.077 171.923 384 384 384 212.079 0 384-171.923 384-384 0-212.079-171.921-384-384-384zM512 21.333c235.639 0 426.667 191.027 426.667 426.667 0 235.642-191.027 426.667-426.667 426.667-235.642 0-426.667-191.025-426.667-426.667 0-235.639 191.025-426.667 426.667-426.667z" />
<glyph unicode="&#xe913;" glyph-name="color-picker" d="M246.092 276.446l-45.255-105.596 30.17-30.17 105.594 45.257 68.732 70.063 263.138 261.803-90.513 90.511-331.866-331.867zM577.963 547.974l-157.842-157.838 2.767-56.482 185.168 184.226-30.093 30.094zM382.156 293.129l-2.758 56.282-97.326-97.327-22.627-52.796 52.602 22.545 63.191 64.418 6.918 6.878zM608.115 638.5c-16.653 16.654-43.657 16.654-60.309 0s-16.653-43.654 0-60.307l90.543-90.543c16.653-16.653 43.657-16.653 60.309 0s16.653 43.652 0 60.308l-90.543 90.542zM713.724 744.079c24.994 24.994 65.515 24.994 90.509 0s24.994-65.516 0-90.51l-105.591-105.594-90.513 90.51 105.596 105.594z" />
<glyph unicode="&#xe914;" glyph-name="copy" d="M341.333 768c0 11.782 9.551 21.333 21.333 21.333h469.333c11.78 0 21.333-9.551 21.333-21.333v-469.333c0-11.78-9.553-21.333-21.333-21.333h-21.333v-42.667h21.333c35.345 0 64 28.655 64 64v469.333c0 35.346-28.655 64-64 64h-469.333c-35.346 0-64-28.654-64-64v-21.333h42.667v21.333zM128 661.333v-554.667c0-23.565 19.103-42.667 42.667-42.667h554.667c23.565 0 42.667 19.102 42.667 42.667v554.667c0 23.564-19.102 42.667-42.667 42.667h-554.667c-23.564 0-42.667-19.103-42.667-42.667zM170.667 661.333h554.667v-554.667h-554.667v554.667z" />
<glyph unicode="&#xe915;" glyph-name="css" d="M692.177 680.416c-4.514 4.848-10.85 7.584-17.519 7.584h-336.002c-13.248 0-24-10.752-24-24s10.752-24 24-24h310.368l-9.617-144h-294.99c-13.248 0-24-10.752-24-24s10.752-24 24-24h291.782l-8.439-126.336-121.101-40.367-120.002 39.983v30.72c0 13.248-10.752 24-24 24s-24-10.752-24-24v-48c0-10.321 6.624-19.49 16.416-22.801l144-48c2.449-0.768 5.039-1.199 7.586-1.199 2.59 0 5.086 0.431 7.582 1.25l144 48c9.263 3.068 15.697 11.422 16.367 21.167l24 359.999c0.435 6.624-1.92 13.152-6.43 18zM846.938 824.224c-4.629 4.944-11.115 7.776-17.993 7.776h-633.905c-6.827 0-13.361-2.832-17.993-7.776-4.584-4.992-6.876-11.616-6.29-18.288l57.734-648.001c0.878-9.984 7.899-18.287 17.652-21.022l259.218-72c2.193-0.623 4.39-0.913 6.63-0.913 2.244 0 4.489 0.29 6.635 0.866l259.119 71.949c9.754 2.739 16.725 11.089 17.651 21.026l57.835 648.047c0.636 6.72-1.66 13.344-6.293 18.336zM748.343 178.577l-236.352-65.617-236.397 65.664-53.931 605.376h580.657l-53.978-605.423z" />
<glyph unicode="&#xe916;" glyph-name="data-and-time" d="M355.555 533.333h-113.777c-7.544 0-14.779-2.249-20.113-6.246-5.334-4.002-8.331-9.429-8.331-15.087v-85.333c0-5.658 2.997-11.085 8.331-15.087 5.335-3.998 12.57-6.246 20.113-6.246h113.777c7.544 0 14.779 2.249 20.113 6.246 5.334 4.002 8.331 9.429 8.331 15.087v85.333c0 5.658-2.997 11.085-8.331 15.087-5.335 3.998-12.57 6.246-20.113 6.246zM341.333 448h-85.333v42.667h85.333v-42.667zM241.778 362.667h113.777c7.544 0 14.779-2.249 20.113-6.246 5.334-4.002 8.331-9.429 8.331-15.087v-85.333c0-5.658-2.997-11.085-8.331-15.087-5.335-3.998-12.57-6.246-20.113-6.246h-113.777c-7.544 0-14.779 2.249-20.113 6.246-5.334 4.002-8.331 9.429-8.331 15.087v85.333c0 5.658 2.997 11.085 8.331 15.087 5.335 3.998 12.57 6.246 20.113 6.246zM256 277.333h85.333v42.667h-85.333v-42.667zM640 469.333c0 11.78-9.553 21.333-21.333 21.333s-21.333-9.553-21.333-21.333v-97.83l-36.42-36.416c-8.329-8.333-8.329-21.841 0-30.174 8.333-8.329 21.841-8.329 30.174 0l42.667 42.667c3.998 4.002 6.246 9.429 6.246 15.087v106.667zM618.667 192c-106.039 0-192 85.961-192 192s85.961 192 192 192c106.039 0 192-85.961 192-192s-85.961-192-192-192zM618.667 234.667c82.475 0 149.333 66.859 149.333 149.333s-66.859 149.333-149.333 149.333c-82.475 0-149.333-66.859-149.333-149.333s66.859-149.333 149.333-149.333zM832 783.645h-76.8v12.089c0 9.618-4.045 18.843-11.247 25.644s-16.969 10.622-27.153 10.622c-10.185 0-19.951-3.821-27.153-10.622s-11.247-16.026-11.247-25.644v-12.089h-128v12.089c0 9.618-4.045 18.843-11.247 25.644s-16.969 10.622-27.153 10.622c-10.185 0-19.951-3.821-27.153-10.622s-11.247-16.026-11.247-25.644v-12.089h-128v12.089c0 9.618-4.046 18.843-11.247 25.644s-16.969 10.622-27.153 10.622c-10.184 0-19.951-3.821-27.153-10.622s-11.247-16.026-11.247-25.644v-12.089h-76.8c-16.968-0.018-33.236-6.392-45.234-17.724s-18.747-26.696-18.766-42.721v-556.087c0.019-16.026 6.768-31.39 18.766-42.722s28.266-17.707 45.234-17.724h640c16.969 0.017 33.237 6.391 45.235 17.724s18.748 26.697 18.765 42.722v556.087c-0.017 16.025-6.767 31.389-18.765 42.721s-28.267 17.705-45.235 17.724zM704 795.733c0 3.206 1.348 6.281 3.75 8.548 2.398 2.267 5.653 3.54 9.050 3.54s6.652-1.274 9.050-3.54c2.402-2.267 3.75-5.342 3.75-8.548v-72.533c0-3.206-1.348-6.281-3.75-8.548-2.398-2.267-5.653-3.54-9.050-3.54s-6.652 1.274-9.050 3.54c-2.402 2.267-3.75 5.342-3.75 8.548v72.533zM499.2 795.733c0 3.206 1.348 6.281 3.75 8.548 2.398 2.267 5.653 3.54 9.050 3.54s6.652-1.274 9.050-3.54c2.402-2.267 3.75-5.342 3.75-8.548v-72.533c0-3.206-1.348-6.281-3.75-8.548-2.398-2.267-5.653-3.54-9.050-3.54s-6.652 1.274-9.050 3.54c-2.402 2.267-3.75 5.342-3.75 8.548v72.533zM294.4 795.733c0 3.206 1.349 6.281 3.749 8.548s5.656 3.54 9.051 3.54c3.395 0 6.65-1.274 9.051-3.54s3.749-5.342 3.749-8.548v-72.533c0-3.206-1.349-6.281-3.749-8.548s-5.656-3.54-9.051-3.54c-3.395 0-6.65 1.274-9.051 3.54s-3.749 5.342-3.749 8.548v72.533zM192 759.467h76.8v-36.267c0-9.618 4.046-18.843 11.247-25.644s16.969-10.622 27.153-10.622c10.184 0 19.951 3.821 27.153 10.622s11.247 16.026 11.247 25.644v36.267h128v-36.267c0-9.618 4.045-18.843 11.247-25.644s16.969-10.622 27.153-10.622c10.185 0 19.951 3.821 27.153 10.622s11.247 16.026 11.247 25.644v36.267h128v-36.267c0-9.618 4.045-18.843 11.247-25.644s16.969-10.622 27.153-10.622c10.185 0 19.951 3.821 27.153 10.622s11.247 16.026 11.247 25.644v36.267h76.8c10.18-0.011 19.942-3.836 27.14-10.635s11.247-16.017 11.26-25.632v-84.622h-716.8v84.622c0.012 9.615 4.061 18.833 11.26 25.632s16.959 10.624 27.14 10.635zM192 130.846c-10.181 0.009-19.941 3.836-27.14 10.633-7.199 6.801-11.248 16.017-11.26 25.634v447.287h716.8v-447.287c-0.013-9.617-4.062-18.833-11.26-25.634-7.198-6.797-16.96-10.624-27.14-10.633h-640z" />
<glyph unicode="&#xe917;" glyph-name="data-picker" d="M765.333 525.999h53.333c3.537 0 6.929-1.195 9.429-3.319s3.904-5.009 3.904-8.013v-45.333c0-3.004-1.404-5.888-3.904-8.013s-5.892-3.319-9.429-3.319h-53.333c-3.537 0-6.929 1.195-9.429 3.319s-3.904 5.009-3.904 8.013v45.333c0 3.004 1.404 5.888 3.904 8.013s5.892 3.319 9.429 3.319zM778.667 480.666h26.667v22.669h-26.667v-22.669zM552 299.332h-53.333c-3.537 0-6.929-1.195-9.429-3.319s-3.904-5.009-3.904-8.013v-45.333c0-3.004 1.404-5.888 3.904-8.013s5.892-3.319 9.429-3.319h53.333c3.537 0 6.929 1.195 9.429 3.319s3.904 5.009 3.904 8.013v45.333c0 3.004-1.404 5.888-3.904 8.013s-5.892 3.319-9.429 3.319zM538.667 253.999h-26.667v22.669h26.667v-22.669zM365.333 525.999h53.333c3.536 0 6.928-1.195 9.429-3.319s3.904-5.009 3.904-8.013v-45.333c0-3.004-1.404-5.888-3.904-8.013-2.502-2.125-5.893-3.319-9.429-3.319h-53.333c-3.536 0-6.928 1.195-9.428 3.319s-3.905 5.009-3.905 8.013v45.333c0 3.004 1.405 5.888 3.905 8.013s5.892 3.319 9.428 3.319zM378.667 480.666h26.667v22.669h-26.667v-22.669zM285.333 412.668h-53.333c-3.536 0-6.928-1.195-9.428-3.319s-3.905-5.009-3.905-8.017v-45.329c0-3.008 1.405-5.892 3.905-8.017s5.892-3.319 9.428-3.319h53.333c3.536 0 6.928 1.195 9.428 3.319s3.905 5.009 3.905 8.017v45.329c0 3.008-1.405 5.892-3.905 8.017s-5.892 3.319-9.428 3.319zM272 367.334h-26.667v22.665h26.667v-22.665zM365.333 412.668h53.333c3.536 0 6.928-1.195 9.429-3.319 2.5-2.125 3.904-5.009 3.904-8.017v-45.329c0-3.008-1.404-5.892-3.904-8.017-2.502-2.125-5.893-3.319-9.429-3.319h-53.333c-3.536 0-6.928 1.195-9.428 3.319s-3.905 5.009-3.905 8.017v45.329c0 3.008 1.405 5.892 3.905 8.017s5.892 3.319 9.428 3.319zM378.667 367.334h26.667v22.665h-26.667v-22.665zM285.333 299.332h-53.333c-3.536 0-6.928-1.195-9.428-3.319s-3.905-5.009-3.905-8.013v-45.333c0-3.004 1.405-5.888 3.905-8.013s5.892-3.319 9.428-3.319h53.333c3.536 0 6.928 1.195 9.428 3.319s3.905 5.009 3.905 8.013v45.333c0 3.004-1.405 5.888-3.905 8.013s-5.892 3.319-9.428 3.319zM272 253.999h-26.667v22.669h26.667v-22.669zM365.333 299.332h53.333c3.536 0 6.928-1.195 9.429-3.319 2.5-2.125 3.904-5.009 3.904-8.013v-45.333c0-3.004-1.404-5.888-3.904-8.013-2.502-2.125-5.893-3.319-9.429-3.319h-53.333c-3.536 0-6.928 1.195-9.428 3.319s-3.905 5.009-3.905 8.013v45.333c0 3.004 1.405 5.888 3.905 8.013s5.892 3.319 9.428 3.319zM378.667 253.999h26.667v22.669h-26.667v-22.669zM700.681 479.275l-66.667 8.661-29.943 54.215c-1.079 1.949-2.786 3.596-4.924 4.751-2.133 1.154-4.617 1.767-7.147 1.767-2.534 0-5.013-0.613-7.151-1.767s-3.844-2.802-4.919-4.751l-29.931-54.215-66.667-8.661c-2.423-0.311-4.702-1.19-6.579-2.53-1.877-1.344-3.281-3.098-4.058-5.077-0.781-1.975-0.9-4.096-0.354-6.131 0.55-2.031 1.745-3.895 3.46-5.385l48.636-42.368-11.499-59.964c-0.401-2.095-0.098-4.245 0.875-6.199 0.969-1.958 2.564-3.644 4.604-4.868 2.044-1.225 4.45-1.933 6.942-2.052 2.496-0.119 4.979 0.363 7.168 1.387l59.473 27.942 59.473-27.942c2.189-1.033 4.676-1.515 7.172-1.399 2.5 0.115 4.911 0.828 6.955 2.052 2.048 1.225 3.648 2.914 4.617 4.877 0.969 1.958 1.267 4.113 0.866 6.212l-11.499 59.959 48.631 42.368c1.715 1.493 2.914 3.358 3.46 5.389 0.55 2.031 0.427 4.151-0.35 6.131-0.781 1.975-2.185 3.733-4.062 5.073-1.877 1.344-4.16 2.214-6.583 2.526zM635.789 429.525c-1.459-1.267-2.543-2.812-3.17-4.501-0.631-1.694-0.781-3.486-0.448-5.235l8.166-42.573-41.89 19.691c-1.975 0.926-4.194 1.412-6.451 1.412s-4.476-0.486-6.451-1.412l-41.894-19.691 8.171 42.573c0.333 1.749 0.183 3.541-0.448 5.235-0.627 1.69-1.715 3.234-3.17 4.501l-35.204 30.673 48.055 6.234c2.163 0.282 4.215 1.011 5.969 2.125s3.157 2.581 4.087 4.262l20.89 37.841 20.89-37.833c0.93-1.685 2.334-3.149 4.087-4.262s3.806-1.843 5.969-2.125l48.055-6.234-35.213-30.682zM765.333 412.668h53.333c3.537 0 6.929-1.195 9.429-3.319s3.904-5.009 3.904-8.017v-45.329c0-3.008-1.404-5.892-3.904-8.017s-5.892-3.319-9.429-3.319h-53.333c-3.537 0-6.929 1.195-9.429 3.319s-3.904 5.009-3.904 8.017v45.329c0 3.008 1.404 5.892 3.904 8.017s5.892 3.319 9.429 3.319zM778.667 367.334h26.667v22.665h-26.667v-22.665zM818.667 299.332h-53.333c-3.537 0-6.929-1.195-9.429-3.319s-3.904-5.009-3.904-8.013v-45.333c0-3.004 1.404-5.888 3.904-8.013s5.892-3.319 9.429-3.319h53.333c3.537 0 6.929 1.195 9.429 3.319s3.904 5.009 3.904 8.013v45.333c0 3.004-1.404 5.888-3.904 8.013s-5.892 3.319-9.429 3.319zM805.333 253.999h-26.667v22.669h26.667v-22.669zM632 299.332h53.333c3.537 0 6.929-1.195 9.429-3.319s3.904-5.009 3.904-8.013v-45.333c0-3.004-1.404-5.888-3.904-8.013s-5.892-3.319-9.429-3.319h-53.333c-3.537 0-6.929 1.195-9.429 3.319s-3.904 5.009-3.904 8.013v45.333c0 3.004 1.404 5.888 3.904 8.013s5.892 3.319 9.429 3.319zM645.333 253.999h26.667v22.669h-26.667v-22.669zM755.2 783.645h76.8c16.969-0.018 33.237-6.392 45.235-17.724s18.748-26.696 18.765-42.721v-556.087c-0.017-16.026-6.767-31.39-18.765-42.722s-28.267-17.707-45.235-17.724h-640c-16.968 0.017-33.236 6.391-45.234 17.724s-18.747 26.697-18.766 42.722v556.087c0.019 16.025 6.768 31.389 18.766 42.721s28.266 17.705 45.234 17.724h76.8v12.089c0 9.618 4.046 18.843 11.247 25.644s16.969 10.622 27.153 10.622c10.184 0 19.951-3.821 27.153-10.622s11.247-16.026 11.247-25.644v-12.089h128v12.089c0 9.618 4.045 18.843 11.247 25.644s16.969 10.622 27.153 10.622c10.185 0 19.951-3.821 27.153-10.622s11.247-16.026 11.247-25.644v-12.089h128v12.089c0 9.618 4.045 18.843 11.247 25.644s16.969 10.622 27.153 10.622c10.185 0 19.951-3.821 27.153-10.622s11.247-16.026 11.247-25.644v-12.089zM707.75 804.282c-2.402-2.267-3.75-5.342-3.75-8.548v-72.533c0-3.206 1.348-6.281 3.75-8.548 2.398-2.267 5.653-3.54 9.050-3.54s6.652 1.274 9.050 3.54c2.402 2.267 3.75 5.342 3.75 8.548v72.533c0 3.206-1.348 6.281-3.75 8.548-2.398 2.267-5.653 3.54-9.050 3.54s-6.652-1.274-9.050-3.54zM502.95 804.282c-2.402-2.267-3.75-5.342-3.75-8.548v-72.533c0-3.206 1.348-6.281 3.75-8.548 2.398-2.267 5.653-3.54 9.050-3.54s6.652 1.274 9.050 3.54c2.402 2.267 3.75 5.342 3.75 8.548v72.533c0 3.206-1.348 6.281-3.75 8.548-2.398 2.267-5.653 3.54-9.050 3.54s-6.652-1.274-9.050-3.54zM298.149 804.282c-2.4-2.267-3.749-5.342-3.749-8.548v-72.533c0-3.206 1.349-6.281 3.749-8.548s5.656-3.54 9.051-3.54c3.395 0 6.65 1.274 9.051 3.54s3.749 5.342 3.749 8.548v72.533c0 3.206-1.349 6.281-3.749 8.548s-5.656 3.54-9.051 3.54c-3.395 0-6.65-1.274-9.051-3.54zM268.8 759.467h-76.8c-10.181-0.011-19.941-3.836-27.14-10.635s-11.248-16.017-11.26-25.632v-84.622h716.8v84.622c-0.013 9.615-4.062 18.833-11.26 25.632s-16.96 10.624-27.14 10.635h-76.8v-36.267c0-9.618-4.045-18.843-11.247-25.644s-16.969-10.622-27.153-10.622c-10.185 0-19.951 3.821-27.153 10.622s-11.247 16.026-11.247 25.644v36.267h-128v-36.267c0-9.618-4.045-18.843-11.247-25.644s-16.969-10.622-27.153-10.622c-10.185 0-19.951 3.821-27.153 10.622s-11.247 16.026-11.247 25.644v36.267h-128v-36.267c0-9.618-4.046-18.843-11.247-25.644s-16.969-10.622-27.153-10.622c-10.184 0-19.951 3.821-27.153 10.622s-11.247 16.026-11.247 25.644v36.267zM164.86 141.478c7.199-6.797 16.959-10.624 27.14-10.633h640c10.18 0.009 19.942 3.836 27.14 10.633 7.198 6.801 11.247 16.017 11.26 25.634v447.287h-716.8v-447.287c0.012-9.617 4.061-18.833 11.26-25.634z" />
<glyph unicode="&#xe918;" glyph-name="delete" d="M368.915 591.085c8.331 8.332 21.839 8.332 30.17 0l112.915-112.915 112.913 112.915c8.333 8.332 21.841 8.332 30.174 0 8.329-8.331 8.329-21.839 0-30.17l-112.917-112.915 112.917-112.913c8.329-8.333 8.329-21.841 0-30.174-8.333-8.329-21.841-8.329-30.174 0l-112.913 112.917-112.915-112.917c-8.331-8.329-21.839-8.329-30.17 0-8.332 8.333-8.332 21.841 0 30.174l112.915 112.913-112.915 112.915c-8.332 8.331-8.332 21.839 0 30.17zM512 106.667c-188.513 0-341.333 152.819-341.333 341.333s152.82 341.333 341.333 341.333c188.514 0 341.333-152.82 341.333-341.333s-152.819-341.333-341.333-341.333zM512 149.333c164.949 0 298.667 133.717 298.667 298.667s-133.717 298.667-298.667 298.667c-164.949 0-298.667-133.718-298.667-298.667s133.718-298.667 298.667-298.667z" />
<glyph unicode="&#xe919;" glyph-name="delete16" d="M512 128c-176.731 0-320 143.27-320 320s143.269 320 320 320c176.73 0 320-143.269 320-320s-143.27-320-320-320zM512 64c212.077 0 384 171.923 384 384s-171.923 384-384 384c-212.077 0-384-171.923-384-384s171.923-384 384-384zM361.373 598.627c12.497 12.497 32.758 12.497 45.254 0l256.003-256c12.493-12.497 12.493-32.758 0-45.258-12.499-12.493-32.761-12.493-45.258 0l-256 256.003c-12.497 12.497-12.497 32.758 0 45.254zM662.63 598.627c12.493-12.497 12.493-32.758 0-45.254l-256.003-256.003c-12.497-12.493-32.758-12.493-45.254 0-12.497 12.499-12.497 32.761 0 45.258l256 256c12.497 12.497 32.758 12.497 45.258 0z" />
<glyph unicode="&#xe91a;" glyph-name="digital-signature" d="M896 746.667v-426.667h-768v426.667h768zM128 789.333c-23.564 0-42.667-19.103-42.667-42.667v-426.667c0-23.565 19.103-42.667 42.667-42.667h768c23.565 0 42.667 19.102 42.667 42.667v426.667c0 23.564-19.102 42.667-42.667 42.667h-768zM347.197 649.791c19.561 21.527 48.775 31.549 77.431 26.563l1.783-0.31c16.747-2.914 32.116-11.121 43.853-23.416 13.683-14.337 21.517-33.271 21.961-53.086l0.401-17.864c0.427-19.245-3.465-39.149-13.44-57.062-6.025-10.825-14.118-24.341-23.3-36.877-6.613-9.037-14.524-18.594-23.343-26.223 9.011-3.332 18.364-5.986 28.689-7.957 37.082-7.083 74.108-6.562 105.237 7.706 2.347 1.079 4.591 2.074 6.758 3.029-0.158 0.516-0.311 1.037-0.457 1.566-1.984 7.095-3.55 16.337-3.708 25.673-0.149 8.747 0.866 20.723 6.818 30.955 0.845 1.451 2.244 3.853 3.972 6.11 1.783 2.33 4.855 5.785 9.66 8.276 11.004 5.711 21.478 1.884 26.654-0.456 0.252-0.115 0.521-0.236 0.811-0.366 3.157-1.42 8.303-3.729 12.983-6.84 4.685-3.11 13.658-13.397 16.346-20.070 0.188-0.465-0.23 0.555 0 0 1.737-4.19 4.497-10.863 5.094-17.724 0.836-9.638-2.236-17.732-6.054-25.028-2.112-4.032-4.621-7.65-7.377-10.906 4.348-1.587 9.229-2.854 14.618-3.75 10.581-1.758 24.841-1.28 39.364 1.638 14.596 2.935 27.477 7.932 35.917 13.687 13.278 9.062 18.799 26.441 18.799 49.493 0 11.785 9.549 21.335 21.333 21.335 11.78 0 21.333-9.551 21.333-21.335 0-26.999-6.063-63.347-37.423-84.736-14.601-9.963-33.374-16.619-51.55-20.275-18.24-3.665-37.867-4.706-54.767-1.899-15.27 2.539-32.806 8.324-47.155 19.145-2.765-1.254-5.431-2.428-7.881-3.503-2.338-1.024-4.476-1.963-6.31-2.803-42.266-19.375-89.28-18.803-131.021-10.829-25.25 4.821-45.729 13.039-65.499 23.232-13.21-6.379-26.557-12.041-39.16-17.148-6.555-2.658-13.494-5.73-20.747-8.947-20.461-9.062-43.43-19.238-67.392-24.324-11.526-2.445-22.852 4.915-25.298 16.439s4.914 22.852 16.44 25.297c19.31 4.1 36.048 11.516 54.993 19.913 8.126 3.605 16.658 7.386 25.973 11.162 4.279 1.737 8.563 3.503 12.828 5.312-8.953 9.737-15.486 21.628-20.332 32.789-7.586 17.476-12.576 36.83-15.839 53.073-6.684 33.272 5.492 65.561 26.616 88.808l11.387 12.532zM388.307 483.255c4.086 2.308 8.055 4.685 11.88 7.142 5.783 3.716 13.213 11.537 21.273 22.545 7.75 10.581 14.888 22.438 20.447 32.427 5.696 10.233 8.35 22.393 8.060 35.354l-0.401 17.864c-0.205 9.175-3.831 17.941-10.167 24.579-5.431 5.693-12.548 9.492-20.303 10.842l-1.782 0.31c-14.263 2.481-28.803-2.507-38.539-13.221l-11.388-12.532c-13.772-15.156-19.898-34.112-16.363-51.712 2.97-14.786 7.241-30.88 13.147-44.486 6.182-14.242 12.753-22.464 18.4-25.775 1.942-1.135 3.852-2.249 5.736-3.337zM598.204 497.698v0zM248.887 213.333h519.113c35.345 0 64-28.655 64-64v-42.667c0-35.345-28.655-64-64-64h-519.113l-113.777 85.333 113.777 85.333zM263.11 170.667l-28.445-21.333h21.333v-42.667h-21.333l28.445-21.333h419.557v85.333h-419.557zM725.333 170.667v-85.333h42.667c11.78 0 21.333 9.553 21.333 21.333v42.667c0 11.78-9.553 21.333-21.333 21.333h-42.667z" />
<glyph unicode="&#xe91b;" glyph-name="divider" d="M213.333 810.667v-192h506.146l112.478-42.667h-639.957c-0.736 0-1.464 0.037-2.181 0.11-10.758 1.093-19.152 10.178-19.152 21.223v213.333c0 11.782 9.551 21.333 21.333 21.333s21.333-9.551 21.333-21.333zM719.479 618.667h91.187v192c0 11.782 9.553 21.333 21.333 21.333s21.333-9.551 21.333-21.333v-213.333c0-11.782-9.591-21.333-21.376-21.333l-112.478 42.667zM170.667 298.667c0 11.78 9.551 21.333 21.333 21.333h640c11.78 0 21.333-9.553 21.333-21.333v-213.333c0-11.78-9.553-21.333-21.333-21.333s-21.333 9.553-21.333 21.333v192h-597.333v-192c0-11.78-9.551-21.333-21.333-21.333s-21.333 9.553-21.333 21.333v213.333zM128 469.333c-11.782 0-21.333-9.553-21.333-21.333s9.551-21.333 21.333-21.333h768c11.78 0 21.333 9.553 21.333 21.333s-9.553 21.333-21.333 21.333h-768z" />
<glyph unicode="&#xe91c;" glyph-name="donation" d="M128 576c0-79.71 36.43-150.912 93.549-197.862 5.681-23.706 14.189-46.31 25.147-67.443-95.863 49.715-161.362 149.862-161.362 265.306 0 164.949 133.718 298.667 298.667 298.667 115.443 0 215.59-65.499 265.306-161.362-21.133 10.958-43.738 19.466-67.443 25.147-46.95 57.119-118.153 93.549-197.862 93.549-141.385 0-256-114.615-256-256zM256 448c0-79.71 36.43-150.912 93.549-197.862 5.681-23.706 14.189-46.31 25.147-67.443-95.863 49.715-161.362 149.862-161.362 265.306 0 164.949 133.718 298.667 298.667 298.667 115.443 0 215.59-65.499 265.306-161.362-21.133 10.958-43.738 19.466-67.443 25.147-46.95 57.119-118.153 93.549-197.862 93.549-141.385 0-256-114.615-256-256zM640 64c-141.385 0-256 114.615-256 256s114.615 256 256 256c141.385 0 256-114.615 256-256s-114.615-256-256-256zM640 21.333c164.949 0 298.667 133.717 298.667 298.667s-133.717 298.667-298.667 298.667c-164.949 0-298.667-133.717-298.667-298.667s133.717-298.667 298.667-298.667zM674.5 272.166c0 9.446-2.999 17.225-8.998 23.334-6.003 6.221-16 11.776-30.003 16.666-13.999 5.001-24.887 9.613-32.666 13.833-25.89 13.888-38.831 34.445-38.831 61.666 0 18.445 5.611 33.613 16.832 45.5 11.221 11.891 26.445 18.948 45.666 21.167v36.335h26.667v-36.668c19.332-2.778 34.278-10.999 44.834-24.666 10.556-13.555 15.834-31.223 15.834-53.001h-40.333c0 13.999-3.17 24.998-9.502 33.003-6.221 8.111-14.724 12.164-25.502 12.164-10.667 0-18.999-2.889-24.998-8.666s-8.998-14.054-8.998-24.832c0-9.668 2.944-17.446 8.832-23.334 5.999-5.777 16.111-11.277 30.332-16.499 14.225-5.222 25.391-10.057 33.502-14.502s14.946-9.553 20.501-15.334c5.555-5.666 9.83-12.22 12.83-19.665 3.004-7.445 4.501-16.166 4.501-26.167 0-18.778-5.777-34.001-17.331-45.666-11.447-11.665-27.447-18.556-48-20.668v-32.499h-26.5v32.333c-22.003 2.445-38.946 10.334-50.833 23.667-11.78 13.333-17.668 31.002-17.668 53.001h40.499c0-13.999 3.499-24.832 10.5-32.499 7.113-7.667 17.114-11.499 29.999-11.499 12.668 0 22.281 3.055 28.834 9.165 6.669 6.11 10.001 14.221 10.001 24.333z" />
<glyph unicode="&#xe91d;" glyph-name="down" d="M213.333 576h597.333l-298.667-298.667-298.667 298.667z" />
<glyph unicode="&#xe91e;" glyph-name="down16" d="M512 640l-256-384h512l-256 384z" />
<glyph unicode="&#xe91f;" glyph-name="dropdown" d="M384 618.667l128-128 128 128h-256zM725.333 320v-42.667h-426.667v42.667h426.667zM725.333 192v42.667h-426.667v-42.667h426.667zM128 362.667c-23.564 0-42.667 19.102-42.667 42.667v341.333c0 23.564 19.103 42.667 42.667 42.667h768c23.565 0 42.667-19.103 42.667-42.667v-341.333c0-23.565-19.102-42.667-42.667-42.667h-42.667v-213.333c0-23.565-19.102-42.667-42.667-42.667h-597.333c-23.564 0-42.667 19.102-42.667 42.667v213.333h-42.667zM896 746.667h-768v-341.333h768v341.333zM213.333 149.333h597.333v213.333h-597.333v-213.333z" />
<glyph unicode="&#xe920;" glyph-name="edit-2" d="M807.812 801.085c-41.289 41.22-108.151 41.22-149.44 0l-37.41-37.617-399.052-398.886c-0.205-0.205-0.205-0.422-0.423-0.422-0.423-0.636-1.058-1.263-1.474-1.899 0-0.209-0.218-0.209-0.218-0.422-0.423-0.636-0.628-1.058-1.058-1.694-0.205-0.209-0.205-0.414-0.416-0.636-0.212-0.631-0.423-1.058-0.641-1.69 0-0.205-0.205-0.205-0.205-0.427l-88.35-265.702c-2.592-7.565-0.621-15.94 5.071-21.555 4-3.947 9.395-6.157 15.008-6.135 2.294 0.038 4.568 0.397 6.764 1.058l265.473 88.572c0.205 0 0.205 0 0.423 0.205 0.668 0.196 1.309 0.482 1.898 0.853 0.165 0.017 0.311 0.090 0.43 0.205 0.628 0.422 1.475 0.849 2.109 1.276 0.627 0.414 1.271 1.050 1.903 1.472 0.213 0.218 0.418 0.218 0.418 0.422 0.218 0.213 0.64 0.418 0.853 0.849l435.614 435.655c41.216 41.293 41.216 108.162 0 149.449l-57.276 57.070zM414.677 203.307l-147.107 147.115 368.189 368.223 147.106-147.114-368.188-368.224zM246.849 311.313l128.515-128.521-192.978-64.256 64.463 192.777zM835.29 624.163l-22.409-22.62-147.11 147.127 22.622 22.613c24.751 24.73 64.862 24.73 89.613 0l57.489-57.492c24.563-24.862 24.469-64.885-0.205-89.628z" />
<glyph unicode="&#xe921;" glyph-name="edit" d="M797.453 349.551c-9.975 0-18.065-8.563-18.065-19.127v-169.826c-0.034-31.68-24.273-57.353-54.191-57.382h-506.874c-29.92 0.030-54.159 25.702-54.193 57.382v498.433c0.035 31.672 24.274 57.344 54.193 57.382h160.393c9.978 0 18.065 8.562 18.065 19.127 0 10.557-8.087 19.127-18.065 19.127h-160.393c-49.861-0.060-90.266-42.842-90.323-95.636v-498.442c0.056-52.796 40.462-95.578 90.323-95.637h506.874c49.86 0.060 90.266 42.842 90.321 95.637v169.835c0 10.564-8.085 19.127-18.065 19.127zM808.363 803.883c-31.748 33.615-83.217 33.615-114.965 0l-322.284-341.239c-2.208-2.338-3.803-5.239-4.636-8.422l-42.381-162.005c-1.743-6.643 0.028-13.756 4.629-18.633 4.608-4.873 11.325-6.75 17.599-4.911l153.004 44.881c3.008 0.883 5.747 2.573 7.953 4.911l322.278 341.248c31.697 33.637 31.697 88.090 0 121.727l-21.197 22.444zM410.475 450.21l263.765 279.286 85.065-90.069-263.77-279.286-85.060 90.069zM393.483 414.106l67.961-71.966-94.007-27.575 26.045 99.541zM804.015 686.759l-19.157-20.285-85.073 90.077 19.166 20.285c17.634 18.671 46.225 18.671 63.859 0l21.205-22.444c17.604-18.694 17.604-48.946 0-67.633z" />
<glyph unicode="&#xe922;" glyph-name="email" d="M85.361 769.098c-0.018-0.364-0.028-0.73-0.028-1.098v-640c0-11.78 9.551-21.333 21.333-21.333h810.667c11.78 0 21.333 9.553 21.333 21.333v640c0 11.782-9.553 21.333-21.333 21.333h-810.667c-11.414 0-20.734-8.964-21.306-20.236zM896 717.323v-567.989h-768v567.989l369.353-348.832c8.222-7.765 21.073-7.765 29.295 0l369.353 348.832zM864.93 746.667l-352.93-333.325-352.93 333.325h705.86z" />
<glyph unicode="&#xe923;" glyph-name="forward" d="M309.444 817.679c15.655 17.612 42.624 19.199 60.236 3.543l384.001-341.333c9.109-8.098 14.319-19.703 14.319-31.889s-5.21-23.795-14.319-31.889l-384.001-341.333c-17.612-15.654-44.58-14.071-60.236 3.541s-14.069 44.582 3.543 60.237l348.124 309.444-348.124 309.443c-17.612 15.655-19.199 42.624-3.543 60.236z" />
<glyph unicode="&#xe924;" glyph-name="free-text" d="M320 661.333c-11.782 0-21.333-9.551-21.333-21.333v-85.333c0-11.782 9.551-21.333 21.333-21.333s21.333 9.551 21.333 21.333v64h149.333v-341.333h-85.333c-11.782 0-21.333-9.553-21.333-21.333s9.551-21.333 21.333-21.333h213.333c11.78 0 21.333 9.553 21.333 21.333s-9.553 21.333-21.333 21.333h-85.333v341.333h149.333v-64c0-11.782 9.553-21.333 21.333-21.333s21.333 9.551 21.333 21.333v85.333c0 11.782-9.553 21.333-21.333 21.333h-384zM682.667 64h170.667c23.565 0 42.667 19.102 42.667 42.667v170.667l-213.333-213.333z" />
<glyph unicode="&#xe925;" glyph-name="grid" d="M213.333 746.667h85.333v-597.333h-85.333v597.333zM341.333 746.667h85.333v-597.333h-85.333v597.333zM469.333 746.667h85.333v-597.333h-85.333v597.333zM597.333 746.667h85.333v-597.333h-85.333v597.333zM725.333 746.667h85.333v-597.333h-85.333v597.333z" />
<glyph unicode="&#xe926;" glyph-name="hidden" d="M896 490.667v-128h-767.998v128h767.998zM128.002 533.333c-23.564 0-42.667-19.102-42.667-42.667v-128c0-23.565 19.102-42.667 42.667-42.667h767.998c23.565 0 42.667 19.102 42.667 42.667v128c0 23.565-19.102 42.667-42.667 42.667h-767.998zM123.55 277.359c1.524-0.013 3.036-0.026 4.453-0.026h768.001c1.417 0 2.927 0.013 4.454 0.026 3.584 0.030 7.241 0.064 9.911-0.073l0.128-0.009c3.196-0.162 12.715-0.644 20.092-8.021 7.381-7.381 7.863-16.896 8.026-20.092l0.009-0.132c0.137-2.671 0.102-6.327 0.073-9.916-0.013-1.523-0.026-3.034-0.026-4.45v-106.667c0-11.78-9.553-21.333-21.333-21.333-11.785 0-21.333 9.553-21.333 21.333v106.667h-768.001v-106.667c0-11.78-9.551-21.333-21.333-21.333s-21.333 9.553-21.333 21.333v106.667c0 1.417-0.013 2.927-0.026 4.454-0.031 3.584-0.063 7.241 0.074 9.911 0.002 0.043 0.004 0.085 0.007 0.132 0.162 3.196 0.646 12.71 8.024 20.092 7.379 7.377 16.896 7.859 20.092 8.021 0.045 0.004 0.088 0.004 0.131 0.009 2.67 0.137 6.328 0.102 9.913 0.073zM921.459 583.172c-7.812-5.433-16.832-7.172-25.455-7.172l-768.001 0.001c-8.624 0-17.641 1.738-25.454 7.171-8.043 5.593-12.252 13.312-14.43 20.355-2.056 6.648-2.577 13.548-2.753 19.2-0.12 3.869-0.087 8.286-0.056 12.343 0.013 1.732 0.026 3.398 0.026 4.929v85.334c0 11.782 9.551 21.333 21.333 21.333s21.333-9.551 21.333-21.333v-85.334c0-2.342-0.017-4.428-0.032-6.351-0.029-3.552-0.053-6.551 0.042-9.592 0.073-2.351 0.214-4.099 0.378-5.389l767.226-0.001c0.166 1.289 0.307 3.038 0.38 5.389 0.094 3.041 0.068 6.040 0.038 9.592-0.013 1.924-0.030 4.009-0.030 6.351v85.334c0 11.782 9.549 21.333 21.333 21.333 11.78 0 21.333-9.551 21.333-21.333v-85.334c0-1.53 0.013-3.197 0.026-4.928 0.030-4.057 0.064-8.474-0.055-12.343-0.175-5.653-0.695-12.552-2.752-19.2-2.18-7.043-6.387-14.762-14.43-20.355zM898.347 618.855c0.021 0.006 0 0 0 0v0zM125.662 618.856c0 0 0.015-0.003 0.043-0.012l-0.043 0.012z" />
<glyph unicode="&#xe927;" glyph-name="hubspot" d="M685.918 247.825c-59.49 0-107.716 48.576-107.716 108.489 0 59.921 48.226 108.497 107.716 108.497 59.486 0 107.712-48.576 107.712-108.497 0-59.913-48.226-108.489-107.712-108.489zM718.161 565.189v96.516c25.011 11.899 42.53 37.384 42.53 66.96v2.228c0 40.82-33.156 74.217-73.681 74.217h-2.202c-40.525 0-73.677-33.397-73.677-74.217v-2.228c0-29.576 17.515-55.072 42.53-66.971v-96.505c-37.239-5.799-71.262-21.269-99.324-44.037l-263.083 206.139c1.737 6.715 2.956 13.627 2.966 20.894 0.041 46.223-37.103 83.753-83.012 83.815-45.888 0.052-83.157-37.374-83.209-83.607s37.093-83.763 83.002-83.815c14.955-0.021 28.804 4.258 40.938 11.212l258.784-202.787c-22.003-33.459-34.901-73.54-34.901-116.689 0-45.171 14.17-86.959 38.106-121.327l-78.694-79.275c-6.221 1.886-12.67 3.196-19.512 3.196-37.713 0-68.295-30.793-68.295-68.783 0-37.999 30.582-68.791 68.295-68.791 37.722 0 68.297 30.793 68.297 68.791 0 6.874-1.306 13.38-3.174 19.648l77.845 78.409c35.337-27.162 79.343-43.482 127.228-43.482 116.032 0 210.082 94.746 210.082 211.614 0 105.801-77.163 193.207-177.839 208.876z" />
<glyph unicode="&#xe928;" glyph-name="i" d="M485.043 192h-70.127l94.873 546h70.127l-94.874-546z" />
<glyph unicode="&#xe929;" glyph-name="image-choices" d="M680.38 725.21c5.747 0.621 11.503-1.12 15.945-4.821l128-106.667c9.050-7.543 10.274-20.995 2.731-30.046s-20.996-10.274-30.046-2.732l-111.049 92.541-145.643-187.257-109.764 43.904-118.23-98.522c-9.051-7.543-22.503-6.319-30.046 2.731s-6.32 22.502 2.732 30.046l137.771 114.81 103.568-41.428 139.477 179.328c3.55 4.564 8.802 7.492 14.554 8.113zM384 661.333c0 47.128-38.205 85.333-85.333 85.333s-85.333-38.205-85.333-85.333c0-47.128 38.205-85.333 85.333-85.333s85.333 38.205 85.333 85.333zM341.333 661.333c0-23.564-19.103-42.667-42.667-42.667s-42.667 19.103-42.667 42.667c0 23.564 19.103 42.667 42.667 42.667s42.667-19.103 42.667-42.667zM128 789.333v-426.667c0-23.565 19.103-42.667 42.667-42.667h682.667c23.565 0 42.667 19.102 42.667 42.667v426.667c0 23.564-19.102 42.667-42.667 42.667h-682.667c-23.564 0-42.667-19.103-42.667-42.667zM170.667 789.333h682.667v-426.667h-682.667v426.667zM615.083 201.498c6.537 9.805 3.887 23.049-5.914 29.585-9.805 6.537-23.049 3.887-29.585-5.914l-73.502-110.251-46.251 30.831c-9.801 6.537-23.044 3.887-29.581-5.918-6.537-9.801-3.887-23.044 5.918-29.581l63.996-42.667c9.805-6.537 23.049-3.887 29.585 5.918l85.333 127.996z" />
<glyph unicode="&#xe92a;" glyph-name="import" d="M106.666 149.333v0zM106.667 405.333v0zM896 426.667v0zM170.667 405.333c11.782 0 21.333 9.553 21.333 21.333s-9.551 21.333-21.333 21.333v-42.667zM853.333 448c-11.785 0-21.333-9.553-21.333-21.333 0-11.785 9.553-21.333 21.333-21.333v42.667zM675.383 367.945c8.866 7.761 9.762 21.235 2.005 30.106-7.761 8.866-21.235 9.762-30.106 2.005l28.1-32.111zM490.667 234.667l-15.087-15.087c7.945-7.94 20.681-8.363 29.137-0.969l-14.050 16.055zM356.418 399.087c-8.331 8.329-21.839 8.329-30.17 0-8.332-8.333-8.332-21.841 0-30.174l30.17 30.174zM512 789.333c0 11.782-9.553 21.333-21.333 21.333s-21.333-9.551-21.333-21.333h42.667zM896 405.333v-256h42.667v256h-42.667zM896 149.333h-768.001v-42.667h768.001v42.667zM127.999 149.333l0.001 256h-42.667l-0.001-256h42.667zM127.999 149.333c-1.556 0-2.993-0.009-4.3-0.021-0.65-0.004-1.279-0.009-1.864-0.013-0.591-0.009-1.141-0.013-1.664-0.017-1.055-0.004-1.926-0.009-2.678 0-0.754 0.009-1.291 0.026-1.677 0.043-0.392 0.021-0.501 0.038-0.417 0.026 0.079-0.009 0.526-0.068 1.208-0.26 0.694-0.192 1.765-0.555 3.017-1.225 0.631-0.341 1.299-0.755 1.979-1.25 0.681-0.503 1.346-1.067 1.977-1.698s1.197-1.297 1.698-1.98c0.499-0.678 0.911-1.348 1.25-1.98 0.672-1.25 1.035-2.321 1.228-3.017 0.189-0.683 0.25-1.126 0.261-1.207 0.011-0.085-0.007 0.026-0.027 0.418-0.020 0.384-0.036 0.922-0.044 1.677-0.007 0.751-0.006 1.621 0.001 2.679 0.004 0.521 0.009 1.071 0.014 1.664 0.006 0.585 0.012 1.212 0.017 1.86 0.011 1.31 0.020 2.748 0.020 4.301h-42.667c0-4.749-0.147-10.56 0.048-14.366 0.157-3.059 0.549-12.74 8.031-20.22 7.482-7.484 17.162-7.876 20.222-8.034 3.806-0.192 9.617-0.047 14.366-0.047v42.667zM896 149.333c0-1.553 0.009-2.991 0.021-4.301 0.004-0.649 0.009-1.276 0.017-1.86 0.004-0.593 0.009-1.143 0.013-1.664 0.004-1.058 0.009-1.929 0-2.679-0.009-0.755-0.021-1.293-0.043-1.677-0.021-0.393-0.038-0.503-0.026-0.418 0.009 0.081 0.068 0.525 0.26 1.207 0.192 0.695 0.555 1.766 1.229 3.017 0.337 0.631 0.751 1.301 1.25 1.98 0.499 0.683 1.067 1.348 1.698 1.98s1.293 1.195 1.975 1.698c0.678 0.495 1.348 0.909 1.98 1.25 1.25 0.67 2.321 1.033 3.017 1.225 0.683 0.192 1.131 0.252 1.207 0.26 0.085 0.013-0.026-0.004-0.418-0.026-0.384-0.017-0.922-0.034-1.677-0.043-0.751-0.009-1.621-0.004-2.675 0-0.525 0.004-1.075 0.009-1.664 0.017-0.585 0.004-1.216 0.009-1.865 0.013-1.31 0.013-2.743 0.021-4.301 0.021v-42.667c4.749 0 10.56-0.145 14.366 0.047 3.059 0.158 12.74 0.55 20.224 8.034 7.479 7.479 7.872 17.161 8.030 20.22 0.196 3.806 0.047 9.617 0.047 14.366h-42.667zM896 405.333c1.557 0 2.991 0.009 4.301 0.021 0.649 0.004 1.28 0.009 1.865 0.017 0.589 0.004 1.139 0.009 1.664 0.013 1.054 0.009 1.924 0.009 2.675 0 0.755-0.009 1.293-0.021 1.677-0.043 0.393-0.021 0.503-0.038 0.418-0.026-0.077 0.009-0.525 0.073-1.207 0.26-0.695 0.192-1.766 0.555-3.017 1.229-0.631 0.337-1.301 0.751-1.98 1.25-0.683 0.499-1.344 1.067-1.975 1.698s-1.199 1.293-1.698 1.975c-0.499 0.678-0.913 1.348-1.25 1.98-0.674 1.25-1.037 2.321-1.229 3.017-0.192 0.683-0.252 1.131-0.26 1.207-0.013 0.085 0.004-0.026 0.026-0.414s0.034-0.926 0.043-1.681c0.009-0.751 0.004-1.621 0-2.675-0.004-0.525-0.009-1.075-0.013-1.664-0.009-0.585-0.013-1.216-0.017-1.865-0.013-1.306-0.021-2.743-0.021-4.301h42.667c0 4.749 0.149 10.56-0.047 14.366-0.158 3.059-0.55 12.74-8.030 20.224-7.484 7.479-17.165 7.872-20.224 8.030-3.806 0.196-9.617 0.047-14.366 0.047v-42.667zM128 448c-4.748 0-10.56 0.149-14.365-0.047-3.060-0.158-12.74-0.55-20.222-8.030-7.483-7.484-7.875-17.165-8.032-20.224-0.195-3.806-0.047-9.617-0.047-14.366h42.667c0 1.557-0.009 2.995-0.020 4.301-0.006 0.649-0.012 1.28-0.017 1.865-0.006 0.589-0.010 1.139-0.014 1.664-0.007 1.054-0.009 1.924-0.001 2.675 0.007 0.755 0.023 1.293 0.043 1.677 0.020 0.393 0.038 0.503 0.027 0.418-0.010-0.077-0.072-0.525-0.261-1.207-0.193-0.695-0.556-1.766-1.228-3.017-0.339-0.631-0.751-1.301-1.251-1.98-0.5-0.683-1.066-1.348-1.698-1.98s-1.296-1.195-1.978-1.694c-0.68-0.499-1.347-0.913-1.979-1.25-1.252-0.674-2.323-1.037-3.017-1.229-0.682-0.192-1.129-0.252-1.208-0.26-0.084-0.013 0.025 0.004 0.417 0.026 0.386 0.021 0.922 0.034 1.677 0.043 0.752 0.009 1.623 0.004 2.678 0 0.523-0.004 1.073-0.009 1.664-0.013 0.585-0.009 1.214-0.013 1.865-0.017 1.306-0.013 2.744-0.021 4.3-0.021v42.667zM128 405.333h42.667v42.667h-42.667v-42.667zM853.333 405.333h42.667v42.667h-42.667v-42.667zM647.283 400.055l-170.667-149.333 28.1-32.111 170.667 149.333-28.1 32.111zM505.754 249.754l-149.335 149.333-30.17-30.174 149.331-149.333 30.174 30.174zM512 234.667v554.667h-42.667v-554.667h42.667z" />
<glyph unicode="&#xe92b;" d="M320 640h384c106.039 0 192-85.961 192-192s-85.961-192-192-192h-384c-106.039 0-192 85.961-192 192s85.961 192 192 192z" />
<glyph unicode="&#xe92c;" d="M480 448c0-88.366-71.634-160-160-160s-160 71.634-160 160c0 88.366 71.634 160 160 160s160-71.634 160-160z" />
<glyph unicode="&#xe92d;" d="M320 640h384c106.039 0 192-85.961 192-192s-85.961-192-192-192h-384c-106.039 0-192 85.961-192 192s85.961 192 192 192z" />
<glyph unicode="&#xe92e;" d="M480 448c0-88.366-71.634-160-160-160s-160 71.634-160 160c0 88.366 71.634 160 160 160s160-71.634 160-160z" />
<glyph unicode="&#xe92f;" glyph-name="info" d="M512 576c23.565 0 42.667-19.102 42.667-42.667v-256c0-23.565-19.102-42.667-42.667-42.667s-42.667 19.102-42.667 42.667v256c0 23.564 19.102 42.667 42.667 42.667zM512 661.333c23.565 0 42.667 19.103 42.667 42.667s-19.102 42.667-42.667 42.667c-23.565 0-42.667-19.103-42.667-42.667s19.102-42.667 42.667-42.667zM512 21.333c-235.642 0-426.667 191.027-426.667 426.667 0 235.642 191.025 426.667 426.667 426.667 235.639 0 426.667-191.025 426.667-426.667 0-235.639-191.027-426.667-426.667-426.667zM512 64c212.079 0 384 171.921 384 384 0 212.077-171.921 384-384 384-212.077 0-384-171.923-384-384 0-212.079 171.923-384 384-384z" />
<glyph unicode="&#xe930;" glyph-name="info16" d="M512 128c-176.731 0-320 143.27-320 320s143.269 320 320 320c176.73 0 320-143.269 320-320s-143.27-320-320-320zM512 64c212.077 0 384 171.923 384 384s-171.923 384-384 384c-212.077 0-384-171.923-384-384s171.923-384 384-384zM480 224v288h64v-288h-64zM560 624c0-26.51-21.49-48-48-48s-48 21.49-48 48c0 26.51 21.49 48 48 48s48-21.49 48-48z" />
<glyph unicode="&#xe931;" glyph-name="js" d="M469.333 682.667c11.78 0 21.333-9.551 21.333-21.333v-384c0-6.946-3.383-13.457-9.067-17.455-5.683-3.994-12.958-4.971-19.494-2.615l-106.665 38.4c-6.509 2.342-11.477 7.697-13.329 14.362l-21.333 76.8c-3.153 11.349 3.493 23.113 14.845 26.266s23.111-3.494 26.265-14.848l18.381-66.172 67.73-24.384v353.647c0 11.782 9.553 21.333 21.333 21.333zM554.667 682.667c-11.78 0-21.333-9.551-21.333-21.333v-203.294c0-11.78 9.553-21.333 21.333-21.333h88.401l-12.096-119.501-81.19-19.106c-11.469-2.697-18.581-14.182-15.881-25.651 2.697-11.469 14.182-18.581 25.651-15.881l96 22.588c8.862 2.086 15.424 9.562 16.341 18.62l16 158.118c0.606 5.999-1.357 11.977-5.402 16.452s-9.792 7.027-15.825 7.027h-90.667v160.627h81.225l-11.563-65.3c-2.057-11.601 5.683-22.672 17.284-24.727s22.673 5.685 24.725 17.287l16 90.353c1.101 6.212-0.606 12.593-4.659 17.427s-10.035 7.627-16.346 7.627h-128zM846.938 824.224c-4.629 4.944-11.115 7.776-17.993 7.776h-633.905c-6.827 0-13.361-2.832-17.993-7.776-4.584-4.992-6.876-11.616-6.29-18.288l57.734-648.001c0.878-9.984 7.899-18.287 17.652-21.022l259.218-72c2.193-0.623 4.39-0.913 6.63-0.913 2.244 0 4.489 0.29 6.635 0.866l259.119 71.949c9.754 2.739 16.725 11.089 17.651 21.026l57.835 648.047c0.636 6.72-1.66 13.344-6.293 18.336zM748.343 178.577l-236.352-65.617-236.397 65.664-53.931 605.376h580.657l-53.978-605.423z" />
<glyph unicode="&#xe932;" d="M0 960h1024v-1024h-1024v1024z" />
<glyph unicode="&#xe933;" d="M384 576v298.666h73.143v-106.667l85.939 100.261c3.465 4.041 8.789 6.406 14.434 6.406h82.483l-128-149.333 128-149.333h-82.483c-5.645 0-10.97 2.364-14.434 6.406l-85.939 100.261v-106.666h-73.143z" />
<glyph unicode="&#xe934;" d="M128 405.333h768v-128h-768v128z" />
<glyph unicode="&#xe935;" d="M170.667 490.667h682.667c23.564 0 42.667-19.103 42.667-42.667v-341.333c0-23.564-19.103-42.667-42.667-42.667h-682.667c-23.564 0-42.667 19.103-42.667 42.667v341.333c0 23.564 19.103 42.667 42.667 42.667z" />
<glyph unicode="&#xe936;" d="M293.908 418.133c20.188 11.051 47.636 15.846 69.47 0.606 4.893-3.413 10.369-8.047 13.497-13.897 14.088-26.347 15.758-56.674 14.2-83.674-2.199-38.114-15.995-71.066-33.49-103.108-5.368-9.83-11.354-19.631-17.851-29.065 2.295-0.282 4.618-0.529 6.968-0.747 18.67-1.732 40.631-1.899 61.137 1.754 20.632 3.674 38.684 11.008 50.84 23.339 1.34 1.361 2.684 2.701 4.028 4.028-3.887 6.899-6.793 14.212-8.802 21.376-2.044 7.283-0.917 14.293 1.075 19.998 1.997 5.705 5.073 10.743 7.868 14.622 7.808 10.825 21.495 12.075 31.552 7.458 9.702-4.45 16.755-14.387 16.102-26.018-0.141-2.5-0.41-5.875-1.114-8.516-2.854-10.692-9.306-19.942-15.863-27.597-0.943-1.101-1.916-2.197-2.897-3.277 4.983-4.919 10.867-8.58 17.583-10.462 24.465-6.857 48.427-4.915 75.529-2.726 2.193 0.179 4.403 0.358 6.639 0.533 7.885 0.623 21.547 5.312 29.722 8.418 2.342 0.887 4.612 1.792 6.976 2.735 1.109 0.444 2.244 0.892 3.413 1.353l9.775 3.861c5.478 2.163 11.678-0.529 13.837-6.007 2.163-5.478-0.525-11.674-6.003-13.837l-9.779-3.857c-1.024-0.405-2.078-0.828-3.149-1.254-2.445-0.973-4.988-1.988-7.497-2.94-7.659-2.906-24.179-8.836-35.622-9.741-2.372-0.183-4.753-0.38-7.147-0.576-26.428-2.167-54.131-4.437-82.449 3.494-10.714 3.004-19.588 8.64-26.786 15.765-0.619-0.619-1.22-1.225-1.796-1.809-16.486-16.73-39.441-25.297-62.294-29.367-22.978-4.092-46.976-3.836-66.848-1.993-6.449 0.597-12.993 1.425-19.511 2.62-0.2-0.243-0.401-0.486-0.601-0.734-1.143-1.387-2.291-2.782-3.444-4.186-8.957-10.901-18.24-22.195-28.058-32.789-11.072-11.947-25.040-21.986-37.647-31.049-3.826-2.748-7.527-5.41-10.983-8.004-4.71-3.537-11.397-2.586-14.935 2.125s-2.587 11.396 2.124 14.933c4.261 3.2 8.489 6.242 12.635 9.229 12.203 8.781 23.684 17.045 33.16 27.268 8.608 9.289 16.795 19.153 25.064 29.205-16.041 5.794-31.003 15.113-42.904 30.37-17.504 22.438-25.14 50.893-27.202 77.065-0.887 11.268 0.781 24.704 3.226 37.363 2.476 12.826 5.902 25.6 8.931 35.814 4.819 16.247 13.877 30.524 25.216 42.385l3.663 3.831c5.969 6.246 12.864 11.533 20.443 15.68zM316.722 193.459c8.149 11.042 15.615 22.878 22.139 34.825 16.858 30.878 28.981 60.574 30.916 94.114 1.484 25.715-0.419 51.255-11.715 72.384-0.707 1.323-2.794 3.605-6.893 6.464-12.486 8.713-30.495 7.219-47.020-1.826-5.658-3.098-10.806-7.044-15.264-11.708l-3.663-3.831c-9.381-9.813-16.477-21.21-20.184-33.711-2.916-9.83-6.139-21.888-8.438-33.792-2.331-12.070-3.564-23.266-2.904-31.642 1.864-23.663 8.684-47.582 22.755-65.621 10.415-13.35 24.221-21.090 40.271-25.655zM478.31 233.737c5.244 6.306 8.926 12.275 10.466 18.052v0c0.004 0.030 0.090 0.401 0.188 1.25 0.094 0.819 0.171 1.826 0.235 2.965 0.111 1.916-1.067 4.224-3.699 5.431-1.34 0.614-2.628 0.708-3.567 0.521-0.862-0.166-1.399-0.542-1.783-1.075-2.095-2.906-3.951-6.089-5.030-9.178-1.079-3.085-1.169-5.431-0.674-7.194 1.045-3.729 2.338-7.339 3.866-10.773z" />
<glyph unicode="&#xe937;" d="M790.507 475.81c-14.485 8.691-33.271 4.011-41.988-10.458l-7.881-13.188-84.207-140.002c-0.043-0.073-0.030-0.137-0.090-0.149-0.073-0.209-0.209-0.431-0.282-0.636 0.013-0.060-0.047-0.077-0.030-0.137-0.077-0.209-0.102-0.341-0.179-0.55-0.043-0.073-0.030-0.128-0.073-0.205-0.017-0.196-0.047-0.329-0.064-0.521 0.017-0.060-0.043-0.073-0.026-0.137l-6.229-80.836c-0.201-2.308 0.939-4.523 2.931-5.7 1.399-0.832 3.072-1.075 4.646-0.674 0.64 0.171 1.254 0.431 1.826 0.768l68.395 43.465c0.055 0.017 0.055 0.017 0.102 0.090 0.175 0.102 0.333 0.226 0.474 0.371 0.047 0.017 0.081 0.047 0.107 0.085 0.149 0.166 0.354 0.346 0.503 0.508s0.282 0.384 0.431 0.546c0.047 0.077 0.102 0.094 0.090 0.149 0.047 0.077 0.149 0.162 0.179 0.299l91.908 152.892c8.691 14.49 4.011 33.276-10.458 41.993l-20.087 12.028zM721.877 280.337l-51.627 31.040 77.683 129.229 51.627-31.040-77.683-129.229zM667.166 298.94l45.103-27.119-49.724-31.561 4.621 58.679zM810.607 428.019l-4.71-7.923-51.631 31.044 4.774 7.936c5.222 8.683 16.491 11.49 25.178 6.272l20.177-12.13c8.64-5.265 11.413-16.516 6.212-25.199z" />
<glyph unicode="&#xe938;" d="M0 960h1024v-1024h-1024v1024z" />
<glyph unicode="&#xe939;" d="M384 576v298.666h73.143v-106.667l85.939 100.261c3.465 4.041 8.789 6.406 14.434 6.406h82.483l-128-149.333 128-149.333h-82.483c-5.645 0-10.97 2.364-14.434 6.406l-85.939 100.261v-106.666h-73.143z" />
<glyph unicode="&#xe93a;" d="M128 405.333h768v-128h-768v128z" />
<glyph unicode="&#xe93b;" d="M170.667 490.667h682.667c23.564 0 42.667-19.103 42.667-42.667v-341.333c0-23.564-19.103-42.667-42.667-42.667h-682.667c-23.564 0-42.667 19.103-42.667 42.667v341.333c0 23.564 19.103 42.667 42.667 42.667z" />
<glyph unicode="&#xe93c;" d="M327.712 314.402c0 19.989-16.207 36.198-36.2 36.198s-36.2-16.209-36.2-36.198c0-19.994 16.207-36.203 36.2-36.203s36.2 16.209 36.2 36.203zM339.779 314.402c0-26.658-21.61-48.269-48.267-48.269s-48.266 21.611-48.266 48.269c0 26.654 21.609 48.265 48.266 48.265s48.267-21.611 48.267-48.265zM213.333 195.469c23.267 77.555 133.091 77.555 156.358 0l-11.558-3.469c-19.827 66.091-113.414 66.091-133.242 0l-11.558 3.469z" />
<glyph unicode="&#xe93d;" d="M512 373.333h-21.333v-21.333h21.333v21.333zM554.667 352h256v21.333h-256v-21.333zM554.667 266.667h256v21.333h-256v-21.333zM810.667 181.333h-256v21.333h256v-21.333zM501.333 202.667l10.667-21.333h-21.333l10.667 21.333zM501.333 266.667c5.892 0 10.667 4.774 10.667 10.667s-4.774 10.667-10.667 10.667c-5.892 0-10.667-4.774-10.667-10.667s4.774-10.667 10.667-10.667z" />
<glyph unicode="&#xe93e;" d="M0 960h1024v-1024h-1024v1024z" />
<glyph unicode="&#xe93f;" d="M384 576v298.666h73.143v-106.667l85.939 100.261c3.465 4.041 8.789 6.406 14.434 6.406h82.483l-128-149.333 128-149.333h-82.483c-5.645 0-10.97 2.364-14.434 6.406l-85.939 100.261v-106.666h-73.143z" />
<glyph unicode="&#xe940;" d="M128 405.333h768v-128h-768v128z" />
<glyph unicode="&#xe941;" d="M170.667 490.667h682.667c23.564 0 42.667-19.103 42.667-42.667v-384c0-23.564-19.103-42.667-42.667-42.667h-682.667c-23.564 0-42.667 19.103-42.667 42.667v384c0 23.564 19.103 42.667 42.667 42.667z" />
<glyph unicode="&#xe942;" d="M562.944 171.285c-28.181 0-51.025 23.010-51.025 51.388 0 28.386 22.844 51.396 51.025 51.396 28.177 0 51.021-23.010 51.021-51.396 0-28.378-22.844-51.388-51.021-51.388zM578.219 321.617v45.717c11.844 5.636 20.143 17.707 20.143 31.718v1.054c0 19.337-15.706 35.157-34.901 35.157h-1.041c-19.196 0-34.901-15.821-34.901-35.157v-1.054c0-14.012 8.299-26.086 20.147-31.723v-45.713c-17.643-2.748-33.758-10.078-47.049-20.86l-124.619 97.643c0.823 3.183 1.4 6.455 1.405 9.899 0.019 21.897-17.576 39.671-39.322 39.701-21.737 0.026-39.39-17.702-39.415-39.603s17.571-39.676 39.317-39.701c7.084-0.009 13.644 2.018 19.392 5.312l122.582-96.060c-10.423-15.846-16.533-34.833-16.533-55.275 0-21.397 6.711-41.19 18.052-57.468l-37.278-37.551c-2.948 0.892-6.003 1.515-9.242 1.515-17.865 0-32.351-14.588-32.351-32.585s14.486-32.585 32.351-32.585c17.869 0 32.35 14.588 32.35 32.585 0 3.255-0.619 6.34-1.502 9.306l36.873 37.146c16.738-12.868 37.585-20.599 60.267-20.599 54.963 0 99.511 44.881 99.511 100.237 0 50.116-36.548 91.52-84.237 98.944z" />
<glyph unicode="&#xe943;" d="M0 960h1024v-1024h-1024v1024z" />
<glyph unicode="&#xe944;" d="M384 576v298.666h73.143v-106.667l85.939 100.261c3.465 4.041 8.789 6.406 14.434 6.406h82.483l-128-149.333 128-149.333h-82.483c-5.645 0-10.97 2.364-14.434 6.406l-85.939 100.261v-106.666h-73.143z" />
<glyph unicode="&#xe945;" d="M128 405.333h768v-128h-768v128z" />
<glyph unicode="&#xe946;" d="M128 490.667h768c23.564 0 42.667-19.103 42.667-42.667v-384c0-23.564-19.103-42.667-42.667-42.667h-768c-23.564 0-42.667 19.103-42.667 42.667v384c0 23.564 19.103 42.667 42.667 42.667z" />
<glyph unicode="&#xe947;" d="M372.596 277.333h-29.167l-42.188 97.813v-97.813h-29.479v151.667h29.479l41.875-97.395 0.104 97.395h29.375v-151.667z" />
<glyph unicode="&#xe948;" d="M491.921 343.791h-62.293v-42.812h72.815v-23.646h-102.188v151.667h101.877v-23.855h-72.503v-38.229h62.293v-23.125z" />
<glyph unicode="&#xe949;" d="M598.746 337.647l11.042 91.354h26.876l-21.043-151.667h-26.458l-14.374 89.583-13.854-89.583h-26.458l-20.834 151.667h26.769l10.833-90.731 12.919 90.731h20.937l13.645-91.354z" />
<glyph unicode="&#xe94a;" d="M729.323 316.915c0 2.709-0.486 5.244-1.459 7.607-0.905 2.359-2.5 4.548-4.791 6.562-2.223 2.082-5.175 3.955-8.853 5.623-3.614 1.737-8.128 3.332-13.542 4.791-6.601 1.805-12.919 4.062-18.961 6.771-5.969 2.709-11.247 5.973-15.834 9.792-4.582 3.819-8.26 8.265-11.038 13.333-2.709 5.069-4.066 10.901-4.066 17.498 0 6.391 1.357 12.19 4.066 17.399 2.705 5.205 6.455 9.651 11.247 13.333 4.791 3.678 10.453 6.49 16.981 8.435 6.528 2.014 13.611 3.021 21.248 3.021 7.919 0 15.138-1.143 21.666-3.439 6.601-2.291 12.258-5.517 16.981-9.685 4.723-4.096 8.401-8.994 11.042-14.686 2.637-5.696 3.955-11.947 3.955-18.752h-28.54c-0.141 3.405-0.764 6.528-1.873 9.374-1.045 2.85-2.641 5.278-4.796 7.292-2.082 2.086-4.719 3.682-7.915 4.791-3.123 1.182-6.805 1.771-11.042 1.771-3.887 0-7.36-0.486-10.415-1.455-2.987-0.905-5.521-2.223-7.607-3.959-2.082-1.668-3.678-3.682-4.791-6.042-1.041-2.291-1.562-4.791-1.562-7.501 0-2.846 0.695-5.414 2.086-7.71 1.455-2.291 3.541-4.373 6.246-6.246 2.709-1.809 5.973-3.473 9.792-5.001 3.891-1.527 8.265-2.953 13.124-4.271 6.946-2.014 13.333-4.48 19.17-7.398 5.833-2.914 10.833-6.387 14.997-10.415 4.237-3.959 7.501-8.508 9.792-13.645 2.364-5.069 3.541-10.731 3.541-16.981 0-6.665-1.353-12.604-4.062-17.813-2.637-5.137-6.319-9.51-11.042-13.124-4.723-3.541-10.347-6.251-16.875-8.124-6.528-1.805-13.645-2.709-21.355-2.709-4.791 0-9.583 0.452-14.374 1.357-4.723 0.832-9.271 2.15-13.645 3.955-4.305 1.805-8.333 4.062-12.083 6.771s-7.014 5.867-9.792 9.481c-2.709 3.61-4.86 7.706-6.46 12.292-1.527 4.582-2.291 9.651-2.291 15.206h28.749c0.141-4.582 0.939-8.508 2.398-11.772s3.473-5.935 6.042-8.021c2.637-2.082 5.764-3.61 9.374-4.582 3.682-0.973 7.71-1.459 12.083-1.459 3.891 0 7.326 0.452 10.313 1.357 3.055 0.9 5.628 2.15 7.71 3.75 2.082 1.596 3.682 3.507 4.791 5.73 1.109 2.291 1.668 4.791 1.668 7.497z" />
<glyph unicode="&#xe94b;" d="M177.958 87.646h71.042v-23.646h-100.417v151.667h29.375v-128.021z" />
<glyph unicode="&#xe94c;" d="M365.929 130.458h-62.292v-42.812h72.813v-23.646h-102.188v151.667h101.875v-23.855h-72.5v-38.229h62.292v-23.125z" />
<glyph unicode="&#xe94d;" d="M510.046 191.812h-46.771v-127.812h-29.376v127.812h-46.144v23.855h122.292v-23.855z" />
<glyph unicode="&#xe94e;" d="M636.036 191.812h-46.771v-127.812h-29.372v127.812h-46.148v23.855h122.291v-23.855z" />
<glyph unicode="&#xe94f;" d="M743.906 130.458h-62.293v-42.812h72.811v-23.646h-102.187v151.667h101.875v-23.855h-72.499v-38.229h62.293v-23.125z" />
<glyph unicode="&#xe950;" d="M828.019 120.666h-22.187v-56.666h-29.269v151.667h50.833c8.401 0 16.009-1.007 22.814-3.021 6.805-1.946 12.604-4.826 17.395-8.649 4.86-3.819 8.576-8.576 11.145-14.268 2.641-5.696 3.959-12.292 3.959-19.793 0-5.414-0.661-10.313-1.98-14.686-1.25-4.305-3.089-8.196-5.521-11.669-2.359-3.401-5.244-6.387-8.644-8.956-3.337-2.569-7.087-4.791-11.251-6.669l32.602-62.605v-1.353h-31.351l-28.544 56.666zM805.833 144.418h21.666c8.265 0 14.618 2.082 19.063 6.246 4.514 4.237 6.771 10.001 6.771 17.293 0 7.569-2.189 13.44-6.562 17.604-4.373 4.237-10.833 6.353-19.375 6.353h-21.564v-47.497z" />
<glyph unicode="&#xe951;" d="M0 960h1024v-1024h-1024v1024z" />
<glyph unicode="&#xe952;" d="M170.667 448c0 23.565 19.103 42.667 42.667 42.667h597.333c23.565 0 42.667-19.102 42.667-42.667v-341.333c0-23.565-19.102-42.667-42.667-42.667h-597.333c-23.564 0-42.667 19.102-42.667 42.667v341.333z" />
<glyph unicode="&#xe953;" d="M384 576v298.666h73.143v-106.667l85.939 100.261c3.465 4.041 8.789 6.406 14.434 6.406h82.483l-128-149.333 128-149.333h-82.483c-5.645 0-10.97 2.364-14.434 6.406l-85.939 100.261v-106.666h-73.143z" />
<glyph unicode="&#xe954;" d="M170.667 405.333h682.667v-85.333h-682.667v85.333z" />
<glyph unicode="&#xe955;" d="M0 960h1024v-1024h-1024v1024z" />
<glyph unicode="&#xe956;" d="M384 576v298.666h73.143v-106.667l85.939 100.261c3.465 4.041 8.789 6.406 14.434 6.406h82.483l-128-149.333 128-149.333h-82.483c-5.645 0-10.97 2.364-14.434 6.406l-85.939 100.261v-106.666h-73.143z" />
<glyph unicode="&#xe957;" d="M170.667 490.667h682.667c23.565 0 42.667-19.102 42.667-42.667v-341.333c0-23.565-19.102-42.667-42.667-42.667h-682.667c-23.564 0-42.667 19.102-42.667 42.667v341.333c0 23.565 19.103 42.667 42.667 42.667zM272.333 149.333v93.001h41.167c12.111 0.111 23.278 1.89 33.5 5.333 10.333 3.443 19.222 8.388 26.667 14.831 7.444 6.447 13.222 14.225 17.333 23.334 4.222 9.114 6.333 19.332 6.333 30.669 0 11.665-2.111 22.11-6.333 31.33-4.111 9.335-9.889 17.225-17.333 23.667-7.444 6.558-16.333 11.558-26.667 15.002-10.222 3.554-21.389 5.389-33.5 5.5h-81.167v-242.667h40zM313.5 274.667h-41.167v85.001h41.167c6.778-0.111 12.833-1.225 18.167-3.332 5.333-2.112 9.889-5.111 13.667-9.003 3.778-3.776 6.667-8.333 8.667-13.666s3-11.166 3-17.498c0-6.003-1-11.558-3-16.67s-4.889-9.498-8.667-13.167c-3.778-3.665-8.333-6.554-13.667-8.666-5.333-2.001-11.389-2.999-18.167-2.999zM474.999 244.002h40.666l46.17-94.669h42.667v2.001l-51.337 101.999c6.558 2.889 12.557 6.387 18.001 10.5 5.444 4.109 10.112 8.887 13.999 14.332 3.891 5.444 6.891 11.503 9.003 18.167 2.223 6.78 3.332 14.276 3.332 22.502 0 12.22-2.112 22.886-6.332 32-4.224 9.109-10.167 16.666-17.835 22.665-7.667 6.11-16.777 10.667-27.332 13.666-10.445 3.11-21.888 4.723-34.334 4.834h-76.668v-242.667h40v94.669zM511.834 276.335h-36.834v83.332h36.668c6.997-0.111 13.333-1.114 18.999-2.999 5.666-1.779 10.445-4.446 14.332-8 4.002-3.558 7.057-7.945 9.169-13.167s3.166-11.221 3.166-18.001c0-6.554-1.109-12.39-3.332-17.502-2.223-4.996-5.389-9.276-9.502-12.83-3.998-3.447-8.777-6.114-14.332-8-5.555-1.89-11.669-2.833-18.334-2.833zM798.332 213.666c3.669 13.222 5.5 26.999 5.5 41.335v30.997c0 14.336-1.83 28.113-5.5 41.335-3.665 13.222-9.165 24.832-16.499 34.833-7.334 10.112-16.499 18.167-27.499 24.166-10.889 5.999-23.667 8.998-38.336 8.998-9.664 0-18.551-1.387-26.667-4.164-7.996-2.778-15.219-6.613-21.666-11.503-6.332-4.885-11.887-10.778-16.666-17.664-4.668-6.78-8.61-14.225-11.831-22.336-3.11-8-5.5-16.555-7.168-25.664-1.557-9.114-2.334-18.445-2.334-28.002v-30.997c0-14.336 1.779-28.058 5.333-41.169 3.669-13.111 9.058-24.721 16.166-34.833 7.223-10.001 16.222-18.001 26.999-24s23.445-8.998 38.003-8.998c14.665 0 27.443 2.944 38.332 8.832 10.999 5.999 20.109 13.999 27.332 24 7.334 10.112 12.834 21.722 16.499 34.833zM761.165 313.502c1.557-9.003 2.389-18.057 2.5-27.17v-31.33c-0.111-9.114-0.943-18.167-2.5-27.17-1.442-8.998-3.998-17.054-7.663-24.166-3.669-7.108-8.559-12.885-14.669-17.331-5.999-4.446-13.555-6.669-22.665-6.669-9.003 0-16.503 2.223-22.502 6.669-5.888 4.446-10.611 10.223-14.165 17.331-3.443 7.223-5.888 15.279-7.334 24.166-1.442 9.003-2.223 18.057-2.334 27.17v31.33c0.111 9.114 0.836 18.112 2.167 27.004 1.446 8.998 3.887 17.054 7.334 24.166 3.554 7.108 8.277 12.83 14.165 17.165 5.999 4.446 13.5 6.669 22.498 6.669 9.114 0 16.67-2.223 22.669-6.669 6.11-4.335 10.999-10.057 14.665-17.165 3.669-7.002 6.281-15.002 7.834-24z" />
<glyph unicode="&#xe958;" d="M0 960h1024v-1024h-1024v1024z" />
<glyph unicode="&#xe959;" d="M170.667 490.667c-23.564 0-42.667-19.102-42.667-42.667v-341.333c0-23.565 19.103-42.667 42.667-42.667h682.667c23.565 0 42.667 19.102 42.667 42.667v341.333c0 23.565-19.102 42.667-42.667 42.667h-682.667zM183.128 229.577c13.645-10.086 31.447-15.424 49.246-15.424 13.053 0 21.361 5.039 21.361 12.753-0.115 8.26-11.895 10.842-26.338 14.007-22.907 5.018-52.509 11.503-52.873 44.437-0.298 27.294 24.030 48.358 58.444 48.358 20.471 0 40.941-5.047 55.477-16.619l-11.645-29.692c-13.375 8.585-29.891 14.566-45.612 14.566-10.682 0-17.801-5.043-17.801-11.571 0.116-8.226 12.226-11.477 26.996-15.441 23.045-6.178 52.564-14.101 53.108-45.376 0-27.887-23.737-47.467-57.557-47.467-24.918 0-47.761 5.931-65.267 18.394l12.462 29.073zM651.831 240.102l34.645-19.196c-12.975-23.147-37.73-38.801-66.15-38.801-41.865 0-75.802 33.937-75.802 75.802s33.937 75.797 75.802 75.797c28.42 0 53.175-15.65 66.15-38.801l-34.645-19.191c-6.217 10.978-17.988 18.389-31.505 18.389-19.989 0-36.194-16.205-36.194-36.194s16.205-36.194 36.194-36.194c13.517 0 25.289 7.411 31.505 18.389zM354.269 185.075h-43.316v211.725h43.316v-211.725zM703.33 396.8h43.315v-124.51l48.951 58.458h52.988l-60.523-70.315 65.271-75.358h-55.364l-51.324 63.433v-63.433h-43.315v211.725zM482.688 313.532v17.207h43.315v-145.664h-43.315v17.207c-7.121-11.87-24.623-20.177-43.017-20.177-37.974 0-67.937 33.822-67.937 75.951 0 42.125 29.963 75.648 67.937 75.648 18.394 0 35.895-8.307 43.017-20.173zM448.866 221.713c-19.989 0-36.192 16.205-36.192 36.194 0 19.985 16.203 36.19 36.192 36.19 14.537 0 27.593-8.009 33.822-18.688v-35.601c-6.229-10.385-19.285-18.095-33.822-18.095z" />
<glyph unicode="&#xe95a;" d="M384 576v298.666h73.143v-106.667l85.939 100.261c3.465 4.041 8.789 6.406 14.434 6.406h82.483l-128-149.333 128-149.333h-82.483c-5.645 0-10.97 2.364-14.434 6.406l-85.939 100.261v-106.666h-73.143z" />
<glyph unicode="&#xe95b;" d="M0 960h1024v-1024h-1024v1024z" />
<glyph unicode="&#xe95c;" d="M384 576v298.666h73.143v-106.667l85.939 100.261c3.465 4.041 8.789 6.406 14.434 6.406h82.483l-128-149.333 128-149.333h-82.483c-5.645 0-10.97 2.364-14.434 6.406l-85.939 100.261v-106.666h-73.143z" />
<glyph unicode="&#xe95d;" d="M128 405.333h768v-128h-768v128z" />
<glyph unicode="&#xe95e;" d="M170.667 490.667h682.667c23.565 0 42.667-19.102 42.667-42.667v-341.333c0-23.565-19.102-42.667-42.667-42.667h-682.667c-23.564 0-42.667 19.102-42.667 42.667v341.333c0 23.565 19.103 42.667 42.667 42.667zM358.833 224.832c1.555-3.776 2.333-7.834 2.333-12.164 0-4.335-0.889-8.333-2.667-12.002-1.777-3.554-4.333-6.609-7.666-9.165s-7.444-4.557-12.334-5.999c-4.778-1.446-10.278-2.167-16.5-2.167-7 0-13.445 0.777-19.334 2.334-5.778 1.553-10.778 3.998-15 7.33-4.111 3.337-7.334 7.612-9.667 12.834s-3.611 11.503-3.833 18.833h-46c0-8.887 1.222-16.998 3.666-24.333 2.556-7.334 6-13.888 10.333-19.665 4.445-5.777 9.667-10.833 15.667-15.168s12.445-7.945 19.333-10.833c7-2.889 14.278-5.001 21.833-6.332 7.667-1.446 15.334-2.167 23-2.167 12.333 0 23.722 1.442 34.167 4.331 10.444 3.004 19.444 7.334 27 13.001 7.555 5.777 13.444 12.779 17.667 21.001 4.333 8.333 6.5 17.835 6.5 28.501 0 10.001-1.889 19.055-5.667 27.166-3.667 8.222-8.889 15.501-15.666 21.833-6.667 6.447-14.667 12.002-24 16.666-9.334 4.668-19.556 8.614-30.667 11.836-7.778 2.112-14.778 4.39-21 6.835-6.111 2.441-11.334 5.107-15.667 7.996-4.333 3.004-7.667 6.336-10 10.001-2.223 3.669-3.334 7.778-3.334 12.335 0 4.331 0.833 8.333 2.5 11.998 1.778 3.78 4.334 7.002 7.667 9.668 3.334 2.778 7.389 4.89 12.167 6.332 4.889 1.557 10.444 2.334 16.666 2.334 6.778 0 12.667-0.943 17.667-2.833 5.111-1.775 9.333-4.331 12.666-7.667 3.444-3.221 6-7.108 7.667-11.665 1.777-4.557 2.778-9.557 3-15.002h45.667c0 10.889-2.111 20.89-6.333 30.003-4.222 9.109-10.111 16.943-17.667 23.497-7.555 6.669-16.611 11.836-27.167 15.501-10.444 3.669-22 5.5-34.667 5.5-12.222 0-23.555-1.609-34-4.834-10.444-3.11-19.5-7.607-27.167-13.5-7.667-5.888-13.667-13.001-18-21.333s-6.5-17.609-6.5-27.831c0-10.556 2.167-19.891 6.5-28.002 4.444-8.111 10.333-15.219 17.667-21.333 7.333-6.11 15.778-11.332 25.333-15.663 9.667-4.335 19.778-7.945 30.333-10.837 8.667-2.33 15.889-4.885 21.667-7.663 5.889-2.667 10.611-5.666 14.167-9.003 3.667-3.221 6.222-6.72 7.667-10.5zM520.666 300.834l-22.997 91.166h-58.167v-242.667h42.999v71.834l-2.001 109.001 28.501-100.834h23.168l31.834 105.335-2.001-113.502v-71.834h42.999v242.667h-58.167l-26.167-91.166zM768.832 224.832c1.557-3.776 2.334-7.834 2.334-12.164 0-4.335-0.887-8.333-2.667-12.002-1.775-3.554-4.331-6.609-7.667-9.165-3.332-2.556-7.441-4.557-12.331-5.999-4.779-1.446-10.278-2.167-16.503-2.167-6.997 0-13.444 0.777-19.332 2.334-5.777 1.553-10.778 3.998-14.997 7.33-4.113 3.337-7.334 7.612-9.668 12.834s-3.61 11.503-3.831 18.833h-46.003c0-8.887 1.225-16.998 3.669-24.333 2.556-7.334 5.999-13.888 10.334-19.665 4.442-5.777 9.664-10.833 15.663-15.168 6.003-4.335 12.446-7.945 19.337-10.833 6.997-2.889 14.276-5.001 21.833-6.332 7.667-1.446 15.334-2.167 22.997-2.167 12.335 0 23.723 1.442 34.167 4.331 10.445 3.004 19.447 7.334 26.999 13.001 7.556 5.777 13.444 12.779 17.668 21.001 4.335 8.333 6.498 17.835 6.498 28.501 0 10.001-1.886 19.055-5.666 27.166-3.665 8.222-8.887 15.501-15.667 21.833-6.665 6.447-14.665 12.002-23.996 16.666-9.335 4.668-19.558 8.614-30.669 11.836-7.778 2.112-14.78 4.39-21.001 6.835-6.11 2.441-11.332 5.107-15.667 7.996-4.331 3.004-7.667 6.336-10.001 10.001-2.219 3.669-3.332 7.778-3.332 12.335 0 4.331 0.836 8.333 2.5 11.998 1.779 3.78 4.335 7.002 7.667 9.668 3.332 2.778 7.39 4.89 12.169 6.332 4.885 1.557 10.445 2.334 16.666 2.334 6.775 0 12.668-0.943 17.664-2.833 5.111-1.775 9.335-4.331 12.668-7.667 3.447-3.221 6.003-7.108 7.667-11.665 1.779-4.557 2.778-9.557 2.999-15.002h45.666c0 10.889-2.108 20.89-6.332 30.003-4.224 9.109-10.112 16.943-17.668 23.497-7.552 6.669-16.61 11.836-27.166 15.501-10.445 3.669-21.999 5.5-34.667 5.5-12.22 0-23.556-1.609-34.001-4.834-10.441-3.11-19.499-7.607-27.166-13.5-7.667-5.888-13.666-13.001-18.001-21.333-4.331-8.333-6.498-17.609-6.498-27.831 0-10.556 2.167-19.891 6.498-28.002 4.446-8.111 10.334-15.219 17.668-21.333 7.334-6.11 15.778-11.332 25.335-15.663 9.664-4.335 19.776-7.945 30.332-10.837 8.666-2.33 15.889-4.885 21.666-7.663 5.888-2.667 10.611-5.666 14.165-9.003 3.669-3.221 6.225-6.72 7.667-10.5z" />
<glyph unicode="&#xe95f;" glyph-name="list-figured" d="M213.334 618.667h-42.668v128h-42.666v42.666h85.334v-170.666zM213.334 234.667h-85.334v42.662h128v-170.662h-128v42.662h85.334v21.338h-42.668v42.662h42.668v21.338zM128 490.667h76.8l-76.8-89.6v-38.4h128v42.667h-76.8l76.8 89.6v38.4h-128v-42.667zM341.333 682.667h554.667v42.667h-554.667v-42.667zM896 426.667h-554.667v42.667h554.667v-42.667zM341.333 170.667h554.667v42.667h-554.667v-42.667z" />
<glyph unicode="&#xe960;" glyph-name="list-pointed" d="M170.667 746.667c-23.609 0-42.667-19.057-42.667-42.667s19.057-42.667 42.667-42.667c23.609 0 42.667 19.057 42.667 42.667s-19.057 42.667-42.667 42.667zM170.667 234.667c-23.609 0-42.667-19.059-42.667-42.667s19.057-42.667 42.667-42.667c23.609 0 42.667 19.059 42.667 42.667s-19.057 42.667-42.667 42.667zM170.667 490.667c-23.609 0-42.667-19.059-42.667-42.667s19.057-42.667 42.667-42.667c23.609 0 42.667 19.059 42.667 42.667s-19.057 42.667-42.667 42.667z" />
<glyph unicode="&#xe961;" glyph-name="logic" d="M725.333 810.667c-11.78 0-21.333-9.551-21.333-21.333s9.553-21.333 21.333-21.333h76.497l-185.178-185.176c-28.898 22.465-65.212 35.843-104.653 35.843-79.522 0-146.344-54.39-165.29-128h-218.71v-85.333h218.71c18.946-73.609 85.768-128 165.29-128 39.441 0 75.755 13.376 104.653 35.844l93.585-93.585c-3.998-8.354-6.238-17.711-6.238-27.593v-42.667c0-35.345 28.655-64 64-64h42.667c35.345 0 64 28.655 64 64v42.667c0 35.345-28.655 64-64 64h-42.667c-9.882 0-19.238-2.24-27.593-6.238l-93.585 93.585c22.468 28.898 35.844 65.212 35.844 104.653s-13.376 75.755-35.844 104.654l185.178 185.176v-76.497c0-11.782 9.553-21.333 21.333-21.333s21.333 9.551 21.333 21.333v128c0 11.782-9.553 21.333-21.333 21.333h-128zM512 362.667c47.13 0 85.333 38.204 85.333 85.333s-38.204 85.333-85.333 85.333c-47.13 0-85.333-38.204-85.333-85.333s38.204-85.333 85.333-85.333zM746.667 192c0 11.78 9.553 21.333 21.333 21.333h42.667c11.78 0 21.333-9.553 21.333-21.333v-42.667c0-11.78-9.553-21.333-21.333-21.333h-42.667c-11.78 0-21.333 9.553-21.333 21.333v42.667z" />
<glyph unicode="&#xe962;" glyph-name="move" d="M85.333 704c0 11.782 9.551 21.333 21.333 21.333h810.667c11.78 0 21.333-9.551 21.333-21.333s-9.553-21.333-21.333-21.333h-810.667c-11.782 0-21.333 9.551-21.333 21.333zM85.333 448c0 11.78 9.551 21.333 21.333 21.333h810.667c11.78 0 21.333-9.553 21.333-21.333s-9.553-21.333-21.333-21.333h-810.667c-11.782 0-21.333 9.553-21.333 21.333zM106.667 213.333c-11.782 0-21.333-9.553-21.333-21.333s9.551-21.333 21.333-21.333h810.667c11.78 0 21.333 9.553 21.333 21.333s-9.553 21.333-21.333 21.333h-810.667z" />
<glyph unicode="&#xe963;" glyph-name="move16" d="M384 704c35.346 0 64 28.654 64 64s-28.654 64-64 64c-35.346 0-64-28.654-64-64s28.654-64 64-64zM640 704c35.347 0 64 28.654 64 64s-28.653 64-64 64c-35.346 0-64-28.654-64-64s28.654-64 64-64zM448 448c0-35.346-28.654-64-64-64s-64 28.654-64 64c0 35.346 28.654 64 64 64s64-28.654 64-64zM640 384c35.347 0 64 28.654 64 64s-28.653 64-64 64c-35.346 0-64-28.654-64-64s28.654-64 64-64zM448 128c0-35.347-28.654-64-64-64s-64 28.653-64 64c0 35.347 28.654 64 64 64s64-28.653 64-64zM640 64c35.347 0 64 28.653 64 64s-28.653 64-64 64c-35.346 0-64-28.653-64-64s28.654-64 64-64z" />
<glyph unicode="&#xe964;" glyph-name="moves" d="M512 881.681l-184.715-161.626 28.096-32.11 135.285 118.374v-187.653h42.667v187.653l135.283-118.374 28.1 32.11-184.717 161.626zM213.333 576h597.333c23.565 0 42.667-19.102 42.667-42.667v-170.667c0-23.565-19.102-42.667-42.667-42.667h-597.333c-23.564 0-42.667 19.102-42.667 42.667v170.667c0 23.564 19.103 42.667 42.667 42.667zM810.667 362.667v170.667h-597.333v-170.667h597.333zM490.667 89.681v187.652h42.667v-187.652l135.283 118.374 28.1-32.111-184.717-161.626-184.715 161.626 28.096 32.111 135.285-118.374z" />
<glyph unicode="&#xe966;" glyph-name="new-letter" d="M512 597.333c11.78 0 21.333-9.551 21.333-21.333v-106.667h106.667c11.78 0 21.333-9.553 21.333-21.333s-9.553-21.333-21.333-21.333h-106.667v-106.667c0-11.78-9.553-21.333-21.333-21.333s-21.333 9.553-21.333 21.333v106.667h-106.667c-11.782 0-21.333 9.553-21.333 21.333s9.551 21.333 21.333 21.333h106.667v106.667c0 11.782 9.553 21.333 21.333 21.333zM106.667 789.333h810.667c11.78 0 21.333-9.551 21.333-21.333v-640c0-11.78-9.553-21.333-21.333-21.333h-810.667c-11.782 0-21.333 9.553-21.333 21.333v640c0 0.368 0.009 0.734 0.028 1.098 0.571 11.272 9.892 20.236 21.306 20.236zM896 149.333v567.989l-157.909-149.136c19.089-35.839 29.909-76.748 29.909-120.186 0-141.385-114.615-256-256-256s-256 114.615-256 256c0 43.439 10.819 84.348 29.909 120.186l-157.909 149.136v-567.989h768zM309.48 604.613c46.825 60.463 120.127 99.387 202.52 99.387s155.695-38.924 202.522-99.387l150.409 142.054h-705.86l150.41-142.054zM725.333 448c0 117.821-95.514 213.333-213.333 213.333s-213.333-95.513-213.333-213.333c0-117.82 95.513-213.333 213.333-213.333s213.333 95.514 213.333 213.333z" />
<glyph unicode="&#xe967;" glyph-name="not-selected" d="M853.333 789.333v-682.667h-682.667v682.667h682.667zM170.667 832c-23.564 0-42.667-19.103-42.667-42.667v-682.667c0-23.565 19.103-42.667 42.667-42.667h682.667c23.565 0 42.667 19.102 42.667 42.667v682.667c0 23.564-19.102 42.667-42.667 42.667h-682.667z" />
<glyph unicode="&#xe968;" d="M795.379 250.441c18.901-40.009 37.781-53.235 40.29-54.861 10.569-4.89 15.778-16.192 13.35-27.644-2.453-11.567-13.265-19.541-25.071-19.541h-183.245c-1.024-70.234-58.347-127.061-128.704-127.061s-127.681 56.828-128.705 127.061h-183.245c-11.805 0-22.615 7.974-25.070 19.541-2.432 11.452 2.78 22.75 13.35 27.644 2.51 1.63 21.388 14.852 40.29 54.861 15.653 33.126 25.729 72.358 32.076 112.226h50.738c-8.257-56-22.056-103.228-41.307-141.188-4.375-8.627-8.777-16.26-13.102-22.997h509.951c-4.322 6.737-8.725 14.37-13.103 22.997-33.412 65.882-50.402 159.689-50.496 278.81-0.013 0.307-0.017 0.61-0.017 0.922 0 105.777-85.85 191.765-191.369 191.765-94.622 0-173.427-69.145-188.694-159.642h-50.564c11.178 84.186 65.776 154.822 140.431 188.515v57.758c0 52.417 42.572 95.060 94.903 95.060h7.868c52.326 0 94.903-42.643 94.903-95.060v-57.762c83.669-37.768 142.144-121.945 142.519-219.594 0.013-0.32 0.021-0.636 0.021-0.96 0-73.886 7.287-177.382 42.001-250.85zM508.070 824.585c-24.764 0-44.907-20.177-44.907-44.978l0.004-41.523c15.774 3.258 32.102 4.973 48.828 4.973s33.062-1.716 48.841-4.978v41.528c0 24.802-20.143 44.978-44.902 44.978h-7.863zM433.297 148.395c1.011-42.62 35.917-76.979 78.703-76.979 42.79 0 77.692 34.364 78.703 76.979h-157.406z" />
<glyph unicode="&#xe969;" d="M298.667 405.333c23.564 0 42.667 19.102 42.667 42.667s-19.103 42.667-42.667 42.667c-23.564 0-42.667-19.102-42.667-42.667s19.103-42.667 42.667-42.667zM298.667 234.667c117.821 0 213.333 95.514 213.333 213.333s-95.513 213.333-213.333 213.333c-117.821 0-213.333-95.513-213.333-213.333s95.513-213.333 213.333-213.333z" />
<glyph unicode="&#xe96a;" glyph-name="notification" d="M835.669 195.58c-2.509 1.626-21.389 14.852-40.29 54.861-34.714 73.468-42.001 176.964-42.001 250.85 0 0.324-0.009 0.64-0.021 0.96-0.375 97.649-58.85 181.826-142.519 219.594v57.762c0 52.417-42.577 95.060-94.903 95.060h-7.868c-52.331 0-94.903-42.643-94.903-95.060v-57.758c-83.953-37.89-142.542-122.496-142.542-220.558 0-73.886-7.287-177.378-42.001-250.85-18.902-40.009-37.78-53.231-40.29-54.861-10.57-4.894-15.782-16.192-13.35-27.644 2.455-11.567 13.265-19.541 25.070-19.541h183.245c1.024-70.234 58.348-127.061 128.705-127.061s127.68 56.828 128.704 127.061h183.245c11.806 0 22.618 7.974 25.071 19.541 2.428 11.452-2.782 22.754-13.35 27.644zM463.164 779.607c0 24.802 20.143 44.978 44.907 44.978h7.863c24.759 0 44.902-20.177 44.902-44.978v-41.528c-15.778 3.262-32.115 4.978-48.841 4.978s-33.054-1.715-48.828-4.973l-0.004 41.523zM512 71.415c-42.786 0-77.692 34.359-78.703 76.979h157.406c-1.011-42.615-35.913-76.979-78.703-76.979zM612.668 198.481c-0.004 0-355.642 0-355.642 0 4.325 6.737 8.727 14.37 13.102 22.997 33.507 66.069 50.497 160.213 50.497 279.812 0 105.696 85.848 191.684 191.368 191.684s191.369-85.988 191.369-191.765c0-0.311 0.004-0.614 0.017-0.922 0.094-119.121 17.084-212.928 50.496-278.81 4.378-8.627 8.781-16.26 13.103-22.997h-154.308z" />
<glyph unicode="&#xe96b;" glyph-name="ok" d="M475.665 439.002c0-47.556-8-89.114-24-124.668-16-35.332-38.665-62.336-67.998-80.998-29.333-18.671-63.556-28.002-102.667-28.002-38.223 0-72.111 9.331-101.667 28.002-29.555 18.889-52.556 45.666-69 80.333-16.222 34.889-24.556 75.221-25 120.998v34.999c0 46.669 8.111 87.889 24.333 123.667s39.111 63.111 68.667 82c29.777 19.111 63.778 28.667 102 28.667 38.889 0 73.111-9.444 102.667-28.333 29.778-18.667 52.665-45.889 68.665-81.667 16-35.556 24-77 24-124.334v-30.665zM412 470.332c0 57.557-11.555 101.668-34.667 132.335-23.111 30.889-55.444 46.333-97 46.333-40.444 0-72.333-15.444-95.667-46.333-23.111-30.667-35-73.335-35.666-128v-35.665c0-55.778 11.666-99.669 35-131.669 23.555-31.778 55.889-47.667 97-47.667 41.333 0 73.333 15.002 96 45.001 22.667 30.225 34.333 73.446 35 129.668v35.998zM695.002 437.666l-59.337-61.666v-163.998h-64v485.331h64v-239.998l215.667 239.998h77.333l-190.997-214.334 205.999-270.997h-76.668l-171.998 225.664z" />
<glyph unicode="&#xe96c;" glyph-name="opened-email" d="M682.667 725.333c0 11.782-9.553 21.333-21.333 21.333h-298.667c-11.782 0-21.333-9.551-21.333-21.333s9.551-21.333 21.333-21.333h298.667c11.78 0 21.333 9.551 21.333 21.333zM682.667 597.333c0 11.782-9.553 21.333-21.333 21.333h-298.667c-11.782 0-21.333-9.551-21.333-21.333s9.551-21.333 21.333-21.333h298.667c11.78 0 21.333 9.551 21.333 21.333zM576 490.667c11.78 0 21.333-9.553 21.333-21.333s-9.553-21.333-21.333-21.333h-128c-11.78 0-21.333 9.553-21.333 21.333s9.553 21.333 21.333 21.333h128zM234.667 874.667h554.667c11.78 0 21.333-9.551 21.333-21.333v-149.333h106.667c11.78 0 21.333-9.551 21.333-21.333v-554.667c0-11.78-9.553-21.333-21.333-21.333h-810.667c-11.782 0-21.333 9.553-21.333 21.333v554.667c0 11.782 9.551 21.333 21.333 21.333h106.667v149.333c0 11.782 9.551 21.333 21.333 21.333zM810.667 661.333v-51.249l54.263 51.249h-54.263zM896 631.989l-369.353-348.832c-8.222-7.765-21.073-7.765-29.295 0l-369.353 348.832v-482.656h768v482.656zM159.070 661.333l54.263-51.249v51.249h-54.263zM256 569.788l256-241.78 256 241.78v262.212h-512v-262.212z" />
<glyph unicode="&#xe96d;" glyph-name="page-break" d="M106.667 277.333c-11.782 0-21.333 9.553-21.333 21.333v469.333c0 11.782 9.551 21.333 21.333 21.333s21.333-9.551 21.333-21.333v-448h768v448c0 11.782 9.553 21.333 21.333 21.333s21.333-9.551 21.333-21.333v-469.333c0-11.78-9.553-21.333-21.333-21.333h-810.667zM128 192c-11.782 0-21.333-9.553-21.333-21.333s9.551-21.333 21.333-21.333h85.333c11.782 0 21.333 9.553 21.333 21.333s-9.551 21.333-21.333 21.333h-85.333zM277.333 170.667c0 11.78 9.551 21.333 21.333 21.333h85.333c11.782 0 21.333-9.553 21.333-21.333s-9.551-21.333-21.333-21.333h-85.333c-11.782 0-21.333 9.553-21.333 21.333zM469.333 192c-11.78 0-21.333-9.553-21.333-21.333s9.553-21.333 21.333-21.333h85.333c11.78 0 21.333 9.553 21.333 21.333s-9.553 21.333-21.333 21.333h-85.333zM618.667 170.667c0 11.78 9.553 21.333 21.333 21.333h85.333c11.78 0 21.333-9.553 21.333-21.333s-9.553-21.333-21.333-21.333h-85.333c-11.78 0-21.333 9.553-21.333 21.333zM810.667 192c-11.78 0-21.333-9.553-21.333-21.333s9.553-21.333 21.333-21.333h85.333c11.78 0 21.333 9.553 21.333 21.333s-9.553 21.333-21.333 21.333h-85.333z" />
<glyph unicode="&#xe96e;" glyph-name="password" d="M425.346 469.333c-10.498 84.188-82.314 149.333-169.346 149.333-94.257 0-170.667-76.41-170.667-170.667 0-94.255 76.41-170.667 170.667-170.667 87.032 0 158.848 65.143 169.346 149.333h342.654v-149.333c0-11.78 9.553-21.333 21.333-21.333s21.333 9.553 21.333 21.333v149.333h42.667v-64c0-11.78 9.553-21.333 21.333-21.333s21.333 9.553 21.333 21.333v64h21.333c11.78 0 21.333 9.553 21.333 21.333s-9.553 21.333-21.333 21.333h-491.987zM384 448c0-70.694-57.308-128-128-128s-128 57.306-128 128c0 70.694 57.308 128 128 128s128-57.306 128-128z" />
<glyph unicode="&#xe96f;" glyph-name="payment" d="M853.333 704v-469.333h-682.667v469.333h682.667zM170.667 746.667c-23.564 0-42.667-19.103-42.667-42.667v-469.333c0-23.565 19.103-42.667 42.667-42.667h682.667c23.565 0 42.667 19.102 42.667 42.667v469.333c0 23.564-19.102 42.667-42.667 42.667h-682.667zM170.667 618.667h682.667v-128h-682.667v128z" />
<glyph unicode="&#xe970;" glyph-name="paypal" d="M314.113 85.743l-1.556-6.221c-10.098-40.393 20.453-79.522 62.089-79.522h102.376c30.507 0 56.772 21.534 62.758 51.447l25.617 128.090c3.93 19.652 21.184 33.796 41.225 33.796h19.699c106.53 0 201.109 68.169 234.799 169.233l2.231 6.69c7.309 21.935 12.062 44.642 14.153 67.669l0.606 6.647c7.031 77.365-52.019 156.946-93.286 196.308-9.894 129.558-118.255 236.118-255.339 236.118h-194.676c-31.286 0-57.986-22.618-63.129-53.478l-113.778-682.667c-6.502-39.010 23.581-74.522 63.13-74.522h85.808c2.454 0 4.881 0.141 7.273 0.41zM313.766 835.507c1.715 10.287 10.615 17.826 21.043 17.826h194.676c133.099 0 233.702-120.543 209.89-251.496-11.994-65.967-53.551-120.216-109.5-150.092-25.749-9.95-54.17-17.95-81.963-24.29-6.080-0.521-12.228-0.789-18.428-0.789h-61.769c-46.447 0-86.583-32.448-96.316-77.862l-43.701-203.942c-2.108-9.835-10.8-16.862-20.86-16.862h-85.808c-13.183 0-23.211 11.836-21.043 24.841l113.777 682.667zM422.622 361.097c10.261 14.037 26.816 22.903 45.094 22.903h61.769c119.33 0 222.191 82.308 249.199 197.372 25.485-8.198 54.532-41.823 56.934-113.937l-0.606-6.647c-1.792-19.75-5.867-39.223-12.139-58.039l-2.231-6.69c-27.878-83.639-106.155-140.058-194.321-140.058h-19.699c-40.38 0-75.145-28.501-83.063-68.096l-25.617-128.090c-1.997-9.971-10.752-17.148-20.919-17.148h-102.376c-13.879 0-24.063 13.043-20.696 26.509l8.083 32.316 55.84 241.975c1.095 4.745 2.605 11.268 4.749 17.63z" />
<glyph unicode="&#xe971;" glyph-name="phone" d="M895.582 215.202c-1.438 22.242-12.16 42.722-29.76 56.324l-102.4 80c-28.164 22.080-67.682 21.922-95.526-0.32l-22.878-18.078c-18.078-14.242-44.002-12.8-60.322 3.52l-183.204 183.68c-16.32 16.322-17.76 42.403-3.52 60.483l18.080 22.88c22.080 28.001 22.243 67.521 0.32 95.683l-79.843 102.723c-26.24 33.761-74.882 39.841-108.643 13.6-2.56-2.080-5.12-4.16-7.361-6.56l-65.439-65.602c-28.001-28.16-96.003-143.363 206.565-446.571 192.325-192.482 309.287-232.964 373.607-232.964 38.242 0 60.484 14.080 72.324 25.92l65.442 65.6c15.68 15.842 23.838 37.444 22.558 59.682zM853.982 182.242c-1.122-1.438-2.402-2.88-3.682-4.002l-65.438-65.6c-7.522-7.518-22.242-16.64-49.604-16.64-47.68 0-156.642 28.962-350.888 223.684-224.005 224.486-251.366 356.489-206.564 401.451l65.442 65.601c8.48 8.48 20 13.28 32.161 13.28 0.96 0 1.92 0 2.88-0.16 12.96-0.8 25.121-7.2 32.96-17.441l79.843-102.722c12.96-16.64 12.8-39.841-0.16-56.322l-18.080-22.721c-24.32-30.881-21.761-75.043 6.080-102.883l183.203-183.684c27.682-27.84 72.004-30.4 102.724-6.080l22.878 18.082c16.32 12.958 39.522 13.12 56.004 0.158l102.4-80c19.84-15.518 23.364-44.16 7.842-64z" />
<glyph unicode="&#xe972;" glyph-name="php" d="M789.538 565.333h-81.984c-8.977 0-16.789-6.11-18.965-14.819l-39.228-156.825-19.439-77.841c-2.637-10.466 3.742-21.086 14.225-23.701 1.587-0.401 3.191-0.593 4.757-0.593 8.764 0 16.73 5.922 18.944 14.822l15.868 63.403h68.599c51.716 0 96.593 35.042 109.158 85.231l3.422 13.769c5.862 23.373 0.704 47.684-14.114 66.668-14.835 19.001-37.141 29.887-61.244 29.887zM826.953 478.251l-3.422-13.769c-8.192-32.734-37.47-55.595-71.215-55.595h-58.816l29.333 117.333h66.705c11.955 0 23.049-5.402 30.4-14.835 7.377-9.438 9.933-21.504 7.014-33.135zM567.189 565.334c19.575 0 37.871-8.709 50.227-23.872 12.339-15.182 17.148-34.889 13.18-54.047l-21.218-102.054c-1.933-9.246-10.065-15.586-19.136-15.586-1.318 0-2.654 0.137-3.994 0.401-10.577 2.219-17.378 12.57-15.181 23.13l21.218 102.054c1.583 7.603-0.324 15.394-5.214 21.41s-12.126 9.451-19.883 9.451h-69.103l-25.523-140.382c-1.698-9.455-9.929-16.060-19.213-16.060-1.165 0-2.33 0.094-3.511 0.324-10.637 1.929-17.685 12.105-15.735 22.724l39.113 215.113c1.907 10.637 12.164 17.684 22.724 15.735 10.637-1.929 17.685-12.108 15.735-22.726l-6.477-35.616h61.99zM219.257 261.030c82.545-33.293 181.843-47.697 292.743-47.697 119.727 0 232.043 22.383 316.117 59.75 41.963 18.645 78.972 41.95 106.159 69.961 27.302 28.13 47.057 63.684 47.057 104.956s-19.755 76.826-47.057 104.955c-27.187 28.010-64.196 51.314-106.159 69.964-84.075 37.367-196.39 59.748-316.117 59.748s-232.041-22.382-316.119-59.748c-41.962-18.649-78.97-41.954-106.156-69.964-27.303-28.129-47.058-63.683-47.058-104.955 0-72.205 58.691-125.871 123.45-160.397l37.968-20.245 15.172-6.327zM188.197 329.015l-2.125 1.143c-14.653 7.936-27.904 16.388-39.563 25.276-36.070 27.503-56.908 59.179-56.908 92.565 0 48.832 44.541 94.028 116.175 127.832 17.366 8.195 36.323 15.72 56.625 22.466 9.873 3.281 20.064 6.377 30.543 9.275 64.328 17.794 139.552 28.16 219.057 28.16 228.958 0 422.4-85.965 422.4-187.733s-193.442-187.733-422.4-187.733c-110.115 0-204.922 14.746-281.003 46.682l-0.597 0.252 8.6 65.707h67.351c50.774 0 94.838 33.643 107.175 81.822l3.357 13.218c5.757 22.438 0.693 45.777-13.856 64-14.569 18.242-36.47 28.693-60.133 28.693h-80.494c-8.813 0-16.48-5.866-18.619-14.226l-55.584-217.398zM259.861 419.84h46.489c29.961 0 54.823 19.712 61.699 46.494l3.372 13.274c2.061 8.034 0.373 16.235-5.073 23.057-5.524 6.912-13.842 11.042-23.454 11.042h-59.033l-24-93.867z" />
<glyph unicode="&#xe973;" glyph-name="product" d="M250.826 426.031c11.43 2.854 23.013-4.092 25.87-15.522l42.667-170.667c2.858-11.43-4.092-23.014-15.522-25.873-11.43-2.854-23.013 4.092-25.871 15.522l-42.667 170.667c-2.857 11.43 4.092 23.014 15.523 25.873zM426.502 407.979c-1.461 11.691-12.123 19.985-23.814 18.522-11.691-1.459-19.984-12.122-18.523-23.812l21.333-170.667c1.462-11.691 12.124-19.985 23.814-18.522 11.691 1.459 19.985 12.122 18.522 23.812l-21.332 170.667zM663.979 426.5c-11.691 1.463-22.353-6.831-23.812-18.522l-21.333-170.667c-1.463-11.691 6.831-22.353 18.522-23.812 11.691-1.463 22.353 6.831 23.812 18.522l21.333 170.667c1.463 11.691-6.831 22.353-18.522 23.812zM789.969 410.509c2.859 11.43 14.443 18.377 25.873 15.522 11.43-2.859 18.377-14.443 15.522-25.873l-42.667-170.667c-2.859-11.43-14.443-18.377-25.873-15.522-11.43 2.859-18.377 14.443-15.522 25.873l42.667 170.667zM176.915 783.085c8.331 8.332 21.839 8.332 30.17 0l249.751-249.751h110.327l249.754 249.751c8.329 8.332 21.837 8.332 30.17 0 8.329-8.331 8.329-21.839 0-30.17l-219.584-219.582h289.83c6.272 0 12.224-2.761 16.277-7.543 4.053-4.787 5.798-11.11 4.766-17.297l-58.057-348.348c-5.146-30.861-31.846-53.478-63.13-53.478h-610.38c-31.286 0-57.986 22.618-63.129 53.478l-58.058 348.348c-1.031 6.187 0.712 12.51 4.765 17.297 4.054 4.783 10.007 7.543 16.278 7.543h289.83l-219.582 219.582c-8.331 8.331-8.331 21.839 0 30.17zM131.85 490.667l53.918-323.507c1.715-10.287 10.615-17.826 21.043-17.826h610.38c10.428 0 19.328 7.539 21.043 17.826l53.918 323.507h-760.302z" />
<glyph unicode="&#xe974;" glyph-name="puzzle" d="M813.248 832h-602.498c-45.628 0-82.75-37.122-82.75-82.75v-602.498c0-45.632 37.122-82.752 82.75-82.752h602.502c45.628 0 82.748 37.12 82.748 82.752v602.498c0 45.628-37.12 82.75-82.752 82.75v0zM850.999 749.25v-278.752h-98.001c-12.425 0-22.498-10.074-22.498-22.498v-30.123c0-20.817-16.934-37.751-37.751-37.751-20.813 0-37.747 16.934-37.747 37.751v30.123c0 12.425-10.078 22.498-22.502 22.498h-98.001v75.501h7.625c45.632 0 82.752 37.122 82.752 82.751s-37.12 82.75-82.752 82.75h-7.625v75.5h278.75c20.817 0 37.751-16.935 37.751-37.75zM210.75 787h278.752v-97.999c0-12.426 10.074-22.5 22.498-22.5h30.123c20.817 0 37.751-16.935 37.751-37.751s-16.934-37.751-37.751-37.751h-30.123c-12.425 0-22.498-10.074-22.498-22.5v-98.001h-75.501v7.625c0 45.632-37.122 82.752-82.751 82.752s-82.75-37.12-82.75-82.752v-7.625h-75.5v278.752c0 20.815 16.935 37.75 37.75 37.75zM173 146.752v278.75h97.999c12.426 0 22.5 10.074 22.5 22.498v30.123c0 20.817 16.935 37.751 37.751 37.751s37.751-16.934 37.751-37.751v-30.123c0-12.425 10.074-22.498 22.5-22.498h98.001v-75.503h-7.625c-45.632 0-82.752-37.12-82.752-82.748s37.12-82.752 82.752-82.752h7.625v-75.499h-278.752c-20.815 0-37.75 16.934-37.75 37.751zM813.248 109.001h-278.75v98.001c0 12.425-10.074 22.498-22.498 22.498h-30.123c-20.817 0-37.751 16.934-37.751 37.751 0 20.813 16.934 37.747 37.751 37.747h30.123c12.425 0 22.498 10.078 22.498 22.502v98.001h75.503v-7.625c0-45.632 37.12-82.752 82.748-82.752s82.752 37.12 82.752 82.752v7.625h75.499v-278.75c0-20.817-16.934-37.751-37.751-37.751z" />
<glyph unicode="&#xe975;" glyph-name="radio" d="M512 234.667c117.82 0 213.333 95.514 213.333 213.333s-95.514 213.333-213.333 213.333c-117.821 0-213.333-95.513-213.333-213.333s95.513-213.333 213.333-213.333zM938.667 448c0 235.642-191.027 426.667-426.667 426.667-235.642 0-426.667-191.025-426.667-426.667 0-235.639 191.025-426.667 426.667-426.667 235.639 0 426.667 191.027 426.667 426.667zM896 448c0-212.079-171.921-384-384-384-212.077 0-384 171.921-384 384 0 212.077 171.923 384 384 384 212.079 0 384-171.923 384-384z" />
<glyph unicode="&#xe976;" glyph-name="radio16-activated" d="M512 320c70.692 0 128 57.308 128 128s-57.308 128-128 128c-70.692 0-128-57.308-128-128s57.308-128 128-128zM896 448c0 212.077-171.923 384-384 384s-384-171.923-384-384c0-212.077 171.923-384 384-384s384 171.923 384 384zM832 448c0-176.73-143.27-320-320-320s-320 143.27-320 320c0 176.731 143.269 320 320 320s320-143.269 320-320z" />
<glyph unicode="&#xe977;" glyph-name="radio16" d="M512 128c-176.731 0-320 143.27-320 320s143.269 320 320 320c176.73 0 320-143.269 320-320s-143.27-320-320-320zM512 64c212.077 0 384 171.923 384 384s-171.923 384-384 384c-212.077 0-384-171.923-384-384s171.923-384 384-384z" />
<glyph unicode="&#xe978;" glyph-name="range" d="M128 789.333h768c23.565 0 42.667-19.103 42.667-42.667v-213.333c0-23.565-19.102-42.667-42.667-42.667h-768c-23.564 0-42.667 19.102-42.667 42.667v213.333c0 23.564 19.103 42.667 42.667 42.667zM896 746.667h-768v-213.333h768v213.333zM128 448h512c23.565 0 42.667-19.102 42.667-42.667v-85.333c0-23.565-19.102-42.667-42.667-42.667h-512c-23.564 0-42.667 19.102-42.667 42.667v85.333c0 23.565 19.103 42.667 42.667 42.667zM640 405.333h-512v-85.333h512v85.333zM85.333 192v-85.333c0-23.565 19.103-42.667 42.667-42.667h256c23.564 0 42.667 19.102 42.667 42.667v85.333c0 23.565-19.103 42.667-42.667 42.667h-256c-23.564 0-42.667-19.102-42.667-42.667zM128 192h256v-85.333h-256v85.333z" />
</font>
</defs>
</svg>
